Advertise here

Zombiology (2017) WEBDL 1080p Latino

1.552 vistas
1 estrella2 estrellas3 estrellas4 estrellas5 estrellas (Ninguna valoración todavía)
Cargando…

Información de Zombiology (2017) WEBDL 1080p Latino

Datos de la película

  • Calidad: WEBDL
  • Audio: Se especifica abajo de la Sinopsis
  • Subtitulos: Español Latino SRT
  • Resolución: 1916x804p
  • Formato: MKV
  • Codec: H.264
  • Encoder: Dpelis
  • Mediainfo: Clic para Mostrar Datos Ver
  • Zombiology (2017) WEBDL 1080p Latino.mkv
    Format                      : Matroska
    Format version              : Version 4 / Version 2
    File size                   : 3.82 GiB
    Duration                    : 1 h 46 min
    Overall bit rate            : 5 120 kb/s
    Movie name                  : DPeliculasHDMega.ORG
    Encoded date                : UTC 2017-10-26 02:27:43
    Writing application         : mkvmerge v10.0.0 ('To Drown In You') 64bit
    Writing library             : libebml v1.3.4 + libmatroska v1.4.5

    Video
    ID                          : 1
    Format                      : AVC
    Format/Info                 : Advanced Video Codec
    Format profile              : [email protected]
    Format settings, CABAC      : Yes
    Format settings, RefFrames  : 5 frames
    Codec ID                    : V_MPEG4/ISO/AVC
    Duration                    : 1 h 46 min
    Bit rate                    : 4 541 kb/s
    Width                       : 1 916 pixels
    Height                      : 804 pixels
    Display aspect ratio        : 2.40:1
    Frame rate mode             : Constant
    Frame rate                  : 23.976 (23976/1000) FPS
    Color space                 : YUV
    Chroma subsampling          : 4:2:0
    Bit depth                   : 8 bits
    Scan type                   : Progressive
    Bits/(Pixel*Frame)          : 0.123
    Stream size                 : 3.39 GiB (89%)
    Language                    : English
    Default                     : Yes
    Forced                      : No
    Color range                 : Limited
    Color primaries             : BT.709
    Transfer characteristics    : BT.709
    Matrix coefficients         : BT.709

    Audio #1
    ID                          : 2
    Format                      : AC-3
    Format/Info                 : Audio Coding 3
    Format settings, Endianness : Big
    Codec ID                    : A_AC3
    Duration                    : 1 h 46 min
    Bit rate mode               : Constant
    Bit rate                    : 192 kb/s
    Channel(s)                  : 2 channels
    Channel positions           : Front: L R
    Sampling rate               : 48.0 kHz
    Frame rate                  : 31.250 FPS (1536 SPF)
    Bit depth                   : 16 bits
    Compression mode            : Lossy
    Stream size                 : 147 MiB (4%)
    Language                    : Spanish
    Service kind                : Complete Main
    Default                     : Yes
    Forced                      : No

    Audio #2
    ID                          : 3
    Format                      : AC-3
    Format/Info                 : Audio Coding 3
    Format settings, Endianness : Big
    Codec ID                    : A_AC3
    Duration                    : 1 h 46 min
    Bit rate mode               : Constant
    Bit rate                    : 384 kb/s
    Channel(s)                  : 6 channels
    Channel positions           : Front: L C R, Side: L R, LFE
    Sampling rate               : 48.0 kHz
    Frame rate                  : 31.250 FPS (1536 SPF)
    Bit depth                   : 16 bits
    Compression mode            : Lossy
    Stream size                 : 293 MiB (8%)
    Language                    : Chinese
    Service kind                : Complete Main
    Default                     : No
    Forced                      : No

    Text
    ID                          : 4
    Format                      : UTF-8
    Codec ID                    : S_TEXT/UTF8
    Codec ID/Info               : UTF-8 Plain Text
    Duration                    : 1 h 44 min
    Bit rate                    : 42 b/s
    Count of elements           : 1274
    Stream size                 : 32.5 KiB (0%)
    Default                     : Yes
    Forced                      : No

    Menu
    00:00:00.000                : en:1
    00:10:34.000                : en:2
    00:21:24.000                : en:3
    00:33:43.000                : en:4
    00:41:04.000                : en:5
    00:53:02.000                : en:6
    01:02:54.000                : en:7
    01:11:43.000                : en:8
    01:21:03.000                : en:9
    01:42:07.000                : en:10

  • Peso: 3.82 GB

Sinopsis

Lone y Yeung, dos geeks, ven cómo sus fantasías de cómic se vuelven reales y provocan un apocalipsi zombie en Hong Kong. Este peculiar dúo tendrá que ingeniarselas para sacar a su familia de esta terrible crisis, con la ayuda de unas armas caseras. Los creadores de Gallants nos brindan esta desternillante y sangrienta comedia de acción, que ofrece una nueva vuelta de tuerca al imaginario zombie.

Latino AC3 2.0 iTunes – Chino AC3 5.1 iTunes

Ficha técnica

  • Titulo original: Zombiology: Enjoy Yourself Tonight
  • Fecha de lanzamiento: 29-06-2017
  • Director: Alan Lo
  • Género: Acción
  • Puntuación: 0.0 0 votos
  • Duración:
    1h 47m

Video trailer de la película

Enlaces de descarga

Descargar Zombiology (2017) WEBDL 1080p Latino
Descargar

dpeliculas

Aportes de DPeliculasHDmega la pass es:dpeliculashdmega.org Aportes de CinemaniaHD la pass es:cinemaniahdd.com
Guardado en : Acción

Películas relacionadas

  • Avatar (2009) EXTENDED Full 1080p Latino

    2009
    Avatar (2009) EXTENDED Full 1080p Latino

    0.0 2 h 58 min 2009

    Jake Sully, un ex-marine confinado a una silla de ruedas, es reclutado para viajar al planeta Pandora,...

    Director: James Cameron

    Género: Acción

    Actores: Zoe Saldana

  • 300: El origen de un imperio (2014) Full 1080p Latino

    2014
    300: El origen de un imperio (2014) Full 1080p Latino

    5.0 1 h 42 min 2014

    La historia se ambienta en el año 490 a.C., unos diez años antes de la batalla de las Termópilas....

    Director: Noam Murro

    Género: Acción

    Actores: Wayne Dalglish

  • Imparable (2010) Full 1080p Latino

    2010
    Imparable (2010) Full 1080p Latino

    5.0 1 h 38 min 2010

    El destino cruza las vidas de un veterano ingeniero y la de un joven conductor cuando ambos tengan que...

    Director: Tony Scott

    Género: Acción

    Actores: Toni Saladna

  • Asesino: Mision Venganza (2017) WEBDL 1080p Latino

    2017
    Asesino: Mision Venganza (2017) WEBDL 1080p Latino

    4.0 1 h 51 min 2017

    Adaptación cinematográfica de la novela homónima de Vince Flynnm, cuya trama presenta a Mitch Rapp...

    Director: Michael Cuesta

    Género: Acción

    Actores: Yousef Sweid

Comentarios 2