La ciudad perdida Z (2017) Full 1080p Latino

2.052 vistas
1 estrella2 estrellas3 estrellas4 estrellas5 estrellas (Ninguna valoración todavía)
Cargando…

Información de La ciudad perdida Z (2017) Full 1080p Latino

Datos de la película

  • Calidad: Full 1080p
  • Audio: Español Latino DTS 5.1 BLURAY - Ingles DTS 5.1 BLURAY
  • Subtitulos: Español Latino PGS - Ingles PGS
  • Resolución: 1920x1080p
  • Formato: MKV
  • Codec: H.264
  • Encoder: Dpelis
  • Mediainfo: Ver Ver
  • La ciudad Perdida Z 2017 Full Latino.mkv
    Format                      : Matroska
    Format version              : Version 4 / Version 2
    File size                   : 5.66 GiB
    Duration                    : 2 h 21 min
    Overall bit rate            : 5 737 kb/s
    Encoded date                : UTC 2017-07-03 02:48:43 / UTC 2017-07-02T23:45:01Z
    Writing application         : mkvmerge v10.0.0 ('To Drown In You') 64bit
    Writing library             : libebml v1.3.4 + libmatroska v1.4.5 / Lavf57.7.2

    Video
    ID                          : 1
    Format                      : AVC
    Format/Info                 : Advanced Video Codec
    Format profile              : [email protected]
    Format settings, CABAC      : Yes
    Format settings, ReFrames   : 4 frames
    Codec ID                    : V_MPEG4/ISO/AVC
    Duration                    : 2 h 21 min
    Bit rate                    : 3 346 kb/s
    Width                       : 1 920 pixels
    Height                      : 1 080 pixels
    Display aspect ratio        : 16:9
    Frame rate mode             : Constant
    Frame rate                  : 23.976 (24000/1001) FPS
    Color space                 : YUV
    Chroma subsampling          : 4:2:0
    Bit depth                   : 8 bits
    Scan type                   : Progressive
    Bits/(Pixel*Frame)          : 0.067
    Stream size                 : 3.30 GiB (58%)
    Writing library             : x264 core 148 r2708 86b7198
    Encoding settings           : cabac=1 / ref=4 / deblock=1:0:0 / analyse=0x3:0x133 / me=esa / subme=10 / psy=1 / psy_rd=1.00:0.00 / mixed_ref=1 / me_range=24 / chroma_me=1 / trellis=2 / 8x8dct=1 / cqm=0 / deadzone=21,11 / fast_pskip=1 / chroma_qp_offset=-2 / threads=34 / lookahead_threads=5 / sliced_threads=0 / nr=0 / decimate=1 / interlaced=0 / bluray_compat=0 / constrained_intra=0 / bframes=8 / b_pyramid=2 / b_adapt=2 / b_bias=0 / direct=3 / weightb=1 / open_gop=0 / weightp=2 / keyint=240 / keyint_min=24 / scenecut=40 / intra_refresh=0 / rc_lookahead=60 / rc=crf / mbtree=1 / crf=20.0 / qcomp=0.60 / qpmin=0 / qpmax=69 / qpstep=4 / vbv_maxrate=62500 / vbv_bufsize=78125 / crf_max=0.0 / nal_hrd=none / filler=0 / ip_ratio=1.40 / aq=1:1.00
    Default                     : Yes
    Forced                      : No
    Color range                 : Limited
    Color primaries             : BT.709
    Transfer characteristics    : BT.709
    Matrix coefficients         : BT.709
    Statistics Tags Issue       : mkvmerge v10.0.0 ('To Drown In You') 64bit 2017-07-03 02:48:43 / mkvmerge v10.0.0 ('To Drown In You') 64bit 2017-07-03 02:48:43 / UTC 2017-07-02T23:45:01Z
    FromStats_BitRate           : 3428963
    FromStats_Duration          : 02:21:14.508000000
    FromStats_FrameCount        : 203185
    FromStats_StreamSize        : 3632346914

    Audio #1
    ID                          : 2
    Format                      : DTS
    Format/Info                 : Digital Theater Systems
    Mode                        : 16
    Format settings, Endianness : Big
    Codec ID                    : A_DTS
    Duration                    : 2 h 21 min
    Bit rate mode               : Constant
    Bit rate                    : 768 kb/s
    Channel(s)                  : 6 channels
    Channel positions           : Front: L C R, Side: L R, LFE
    Sampling rate               : 48.0 kHz
    Frame rate                  : 93.750 FPS (512 spf)
    Bit depth                   : 24 bits
    Compression mode            : Lossy
    Stream size                 : 776 MiB (13%)
    Title                       : Surround
    Language                    : Spanish
    Default                     : Yes
    Forced                      : No
    Statistics Tags Issue       : mkvmerge v10.0.0 ('To Drown In You') 64bit 2017-07-03 02:48:43 / mkvmerge v10.0.0 ('To Drown In You') 64bit 2017-07-03 02:48:43 / UTC 2017-07-02T23:45:01Z
    FromStats_BitRate           : 768000
    FromStats_Duration          : 02:21:14.464000000
    FromStats_FrameCount        : 794481
    FromStats_StreamSize        : 813548544

    Audio #2
    ID                          : 3
    Format                      : DTS
    Format/Info                 : Digital Theater Systems
    Mode                        : 16
    Format settings, Endianness : Big
    Codec ID                    : A_DTS
    Duration                    : 2 h 21 min
    Bit rate mode               : Constant
    Bit rate                    : 1 509 kb/s
    Channel(s)                  : 6 channels
    Channel positions           : Front: L C R, Side: L R, LFE
    Sampling rate               : 48.0 kHz
    Frame rate                  : 93.750 FPS (512 spf)
    Bit depth                   : 24 bits
    Compression mode            : Lossy
    Stream size                 : 1.49 GiB (26%)
    Title                       : Surround
    Language                    : English
    Default                     : No
    Forced                      : No
    Statistics Tags Issue       : mkvmerge v10.0.0 ('To Drown In You') 64bit 2017-07-03 02:48:43 / mkvmerge v10.0.0 ('To Drown In You') 64bit 2017-07-03 02:48:43 / UTC 2017-07-02T23:45:01Z
    FromStats_BitRate           : 1509000
    FromStats_Duration          : 02:21:14.464000000
    FromStats_FrameCount        : 794481
    FromStats_StreamSize        : 1598495772

    Text #1
    ID                          : 4
    Format                      : PGS
    Muxing mode                 : zlib
    Codec ID                    : S_HDMV/PGS
    Codec ID/Info               : Picture based subtitle format used on BDs/HD-DVDs
    Language                    : Spanish
    Default                     : No
    Forced                      : No
    Statistics Tags Issue       : mkvmerge v10.0.0 ('To Drown In You') 64bit 2017-07-03 02:48:43 / mkvmerge v10.0.0 ('To Drown In You') 64bit 2017-07-03 02:48:43 / UTC 2017-07-02T23:45:01Z
    FromStats_BitRate           : 13211
    FromStats_Duration          : 02:13:30.585000000
    FromStats_FrameCount        : 2388
    FromStats_StreamSize        : 13229371

    Text #2
    ID                          : 5
    Format                      : PGS
    Muxing mode                 : zlib
    Codec ID                    : S_HDMV/PGS
    Codec ID/Info               : Picture based subtitle format used on BDs/HD-DVDs
    Language                    : English
    Default                     : No
    Forced                      : No
    Statistics Tags Issue       : mkvmerge v10.0.0 ('To Drown In You') 64bit 2017-07-03 02:48:43 / mkvmerge v10.0.0 ('To Drown In You') 64bit 2017-07-03 02:48:43 / UTC 2017-07-02T23:45:01Z
    FromStats_BitRate           : 16794
    FromStats_Duration          : 02:10:43.211000000
    FromStats_FrameCount        : 3140
    FromStats_StreamSize        : 16464997

    Menu
    00:00:00.000                : :Chapter 1
    00:08:20.834                : :Chapter 2
    00:15:31.931                : :Chapter 3
    00:21:28.120                : :Chapter 4
    00:27:09.128                : :Chapter 5
    00:34:56.720                : :Chapter 6
    00:44:58.196                : :Chapter 7
    00:49:35.514                : :Chapter 8
    00:58:25.002                : :Chapter 9
    01:04:42.420                : :Chapter 10
    01:11:09.682                : :Chapter 11
    01:21:21.377                : :Chapter 12
    01:27:41.506                : :Chapter 13
    01:30:42.729                : :Chapter 14
    01:39:45.438                : :Chapter 15
    01:43:59.066                : :Chapter 16
    01:51:39.276                : :Chapter 17
    01:56:10.755                : :Chapter 18
    02:01:42.128                : :Chapter 19
    02:08:34.123                : :Chapter 20

  • Peso: 5.66 GB

Sinopsis

Película basada en el libro de no-ficción escrito por David Grann. En 1925 el explorador británico Percy Fawcett se aventuró en el Amazonas junto con su grupo en busca de una antigua civilización, cuya existencia los europeos llevaban siglos intentando demostrar. La ciudad perdida se conocía como ciudad ‘Z’, y en su búsqueda habían fallecido cientos de personas. Con su iniciativa, Fawcett quería hacer uno de los descubrimientos más importantes de la historia y esperaba tener éxito allí donde tantos otros habían fracasado. Sin embargo, la expedición de Fawcett desapareció en la profundidad de la selva, y nunca más se volvió a saber nada de ellos. Ninguna de las expediciones que han seguido los pasos de Fawcett ha conseguido hallar la ciudad ‘Z’.

Ficha técnica

Imágenes, Capturas de la película

Video trailer de la película

Enlaces de descarga

Descargar La ciudad perdida Z (2017) Full 1080p Latino
Descargar

dpeliculas

Aportes de DPeliculasHDmega la pass es:dpeliculashdmega.org Aportes de CinemaniaHD la pass es:cinemaniahdd.com

PelícuDelas relacionadas

  • Annabelle: Creation (2017) Full 1080p Latino

    2017
    Annabelle: Creation (2017) Full 1080p Latino

    4.5 1 h 49 min 2017

    Década de los 50. Algunos años después de que Samuel Mullins (Anthony LaPaglia), un fabricante de...

    Director: Jan McWilliams

    Género: Estrenos

    Actores: Ward Horton

  • La vida de Pi (2012) 2160p 4K UHD Latino-Ingles

    2012
    La vida de Pi (2012) 2160p 4K UHD Latino-Ingles

    0.0 2h 7m 2012

    Descargar gratis La vida de Pi (2012) 2160p 4K UHD Latino-Ingles.  Pi Patel es un muchacho cuyo padre...

    Director: Ang Lee

    Género: 4K HDR

    Actores: Wang Bo-Chieh

  • Dragon Ball Super (2015) Full 1080p Latino

    2015
    Dragon Ball Super (2015) Full 1080p Latino

    4.1 0h 24m 2015

    Si eres un seguidor de la serie Dragon ball super latino, entonces ahora puedes disfrutar de esta maravillosa...

    Director: Akira Toriyama

    Género: Anime

    Actores: Naoki Tatsuta

  • Arrow (2017) Temporada 6 WEBDL 1080p Subtitulada

    2012
    Arrow (2017) Temporada 6 WEBDL 1080p Subtitulada

    0.0 0h 42m 2012

    Con el futuro del equipo pendiendo de un hilo, Arrow le dio una nueva definición a la frase “explotar...

    Director: Marc Guggenheim

    Género: Acción

    Actores: Willa Holland

Comentarios 6
  • #Cinefilo - 04 julio, 2017

    Muchas gracias por este aporte, tengo una pequeña duda, cuando subiran un jefe en Pañales.. Gracias por la atención prestada .

    • dpelis

      Administrador
      - 04 julio, 2017

      este mes saldra

  • Ariel - 04 julio, 2017

    la parte-. 6 esta con error no puedo descomprimir.. reparar porfavor

    • dpelis

      Administrador
      - 04 julio, 2017

      si la bajo de mega. descarge la parte6 de otro servidor o repare el archivo. el rar cuenta con registro de recuperacion

  • JULIAN - 03 julio, 2017

    bro para cuando pones el servidor de google drive en todas las peliculas? lo puedes aser o no ?
    REPONDE PAPI

    • dpelis

      Administrador
      - 04 julio, 2017

      dificl hacerlo. ya q tomaria tiempo. ah si algun donador pida la pelicula en ese servidor