xXx Reactivated (2017) 1080p Latino

3.437 vistas
1 estrella2 estrellas3 estrellas4 estrellas5 estrellas (1 votos, promedio: 5,00 de 5)
Cargando…

Información de xXx Reactivated (2017) 1080p Latino

xXx Reactivated hd latino 1080p

Datos de la película

  • Calidad: 1080p
  • Audio: Español Latino AC3 5.1 DVD - Ingles AC3 5.1 BLURAY
  • Subtitulos: Español Latino SRT - Ingles SRT
  • Resolución: 1916x796p
  • Formato: MKV
  • Codec: H.264
  • Encoder: Dpelis
  • Mediainfo: Ver Ver
  • xXx.Return.of.Xander.Cage.2017.1080p.BluRay.x264-GECKOS\xXx Return of Xander Cage 2017 1080p Latino.mkv

    Format                      : Matroska
    Format version              : Version 4 / Version 2
    File size                   : 3.17 GiB
    Duration                    : 1 h 46 min
    Overall bit rate            : 4 244 kb/s
    Movie name                  : DPeliculasHDMega.ORG
    Encoded date                : UTC 2017-05-04 02:06:10
    Writing application         : mkvmerge v10.0.0 ('To Drown In You') 64bit
    Writing library             : libebml v1.3.4 + libmatroska v1.4.5

    Video
    ID                          : 1
    Format                      : AVC
    Format/Info                 : Advanced Video Codec
    Format profile              : [email protected]
    Format settings, CABAC      : Yes
    Format settings, ReFrames   : 4 frames
    Codec ID                    : V_MPEG4/ISO/AVC
    Duration                    : 1 h 46 min
    Bit rate                    : 3 500 kb/s
    Width                       : 1 920 pixels
    Height                      : 800 pixels
    Display aspect ratio        : 2.40:1
    Frame rate mode             : Constant
    Frame rate                  : 23.976 (24000/1001) FPS
    Color space                 : YUV
    Chroma subsampling          : 4:2:0
    Bit depth                   : 8 bits
    Scan type                   : Progressive
    Bits/(Pixel*Frame)          : 0.095
    Stream size                 : 2.54 GiB (80%)
    Writing library             : x264 core 148 r2708 86b7198
    Encoding settings           : cabac=1 / ref=3 / deblock=1:0:0 / analyse=0x3:0x113 / me=hex / subme=7 / psy=1 / psy_rd=1.00:0.00 / mixed_ref=1 / me_range=16 / chroma_me=1 / trellis=1 / 8x8dct=1 / cqm=0 / deadzone=21,11 / fast_pskip=1 / chroma_qp_offset=-2 / threads=12 / lookahead_threads=2 / sliced_threads=0 / nr=0 / decimate=1 / interlaced=0 / bluray_compat=0 / constrained_intra=0 / bframes=3 / b_pyramid=2 / b_adapt=1 / b_bias=0 / direct=1 / weightb=1 / open_gop=0 / weightp=2 / keyint=240 / keyint_min=24 / scenecut=40 / intra_refresh=0 / rc_lookahead=40 / rc=abr / mbtree=1 / bitrate=3500 / ratetol=1.0 / qcomp=0.60 / qpmin=0 / qpmax=69 / qpstep=4 / vbv_maxrate=62500 / vbv_bufsize=78125 / nal_hrd=none / filler=0 / ip_ratio=1.40 / aq=1:1.00
    Default                     : Yes
    Forced                      : No
    Color range                 : Limited
    Color primaries             : BT.709
    Transfer characteristics    : BT.709
    Matrix coefficients         : BT.709

    Audio #1
    ID                          : 2
    Format                      : AC-3
    Format/Info                 : Audio Coding 3
    Format settings, Endianness : Big
    Codec ID                    : A_AC3
    Duration                    : 1 h 46 min
    Bit rate mode               : Constant
    Bit rate                    : 448 kb/s
    Channel(s)                  : 6 channels
    Channel positions           : Front: L C R, Side: L R, LFE
    Sampling rate               : 48.0 kHz
    Frame rate                  : 31.250 FPS (1536 spf)
    Bit depth                   : 16 bits
    Compression mode            : Lossy
    Delay relative to video     : 995 ms
    Stream size                 : 342 MiB (11%)
    Language                    : Spanish
    Service kind                : Complete Main
    Default                     : Yes
    Forced                      : No

    Audio #2
    ID                          : 3
    Format                      : AC-3
    Format/Info                 : Audio Coding 3
    Format settings, Endianness : Big
    Codec ID                    : A_AC3
    Duration                    : 1 h 46 min
    Bit rate mode               : Constant
    Bit rate                    : 384 kb/s
    Channel(s)                  : 6 channels
    Channel positions           : Front: L C R, Side: L R, LFE
    Sampling rate               : 48.0 kHz
    Frame rate                  : 31.250 FPS (1536 spf)
    Bit depth                   : 16 bits
    Compression mode            : Lossy
    Delay relative to video     : -5 ms
    Stream size                 : 293 MiB (9%)
    Language                    : English
    Service kind                : Complete Main
    Default                     : No
    Forced                      : No

    Text #1
    ID                          : 4
    Format                      : UTF-8
    Codec ID                    : S_TEXT/UTF8
    Codec ID/Info               : UTF-8 Plain Text
    Duration                    : 1 h 36 min
    Bit rate                    : 47 b/s
    Count of elements           : 990
    Stream size                 : 33.2 KiB (0%)
    Language                    : Spanish
    Default                     : Yes
    Forced                      : No

    Text #2
    ID                          : 5
    Format                      : UTF-8
    Codec ID                    : S_TEXT/UTF8
    Codec ID/Info               : UTF-8 Plain Text
    Duration                    : 1 h 36 min
    Bit rate                    : 48 b/s
    Count of elements           : 1122
    Stream size                 : 34.2 KiB (0%)
    Language                    : English
    Default                     : No
    Forced                      : No

    Text #3
    ID                          : 6
    Format                      : UTF-8
    Codec ID                    : S_TEXT/UTF8
    Codec ID/Info               : UTF-8 Plain Text
    Duration                    : 1 h 24 min
    Bit rate                    : 1 b/s
    Count of elements           : 37
    Stream size                 : 1.22 KiB (0%)
    Title                       : Forzados
    Language                    : Spanish
    Default                     : No
    Forced                      : No

    Menu
    00:00:00.000                : en:00:00:00.000
    00:07:09.262                : en:00:07:09.137
    00:12:00.511                : en:00:12:00.511
    00:22:38.107                : en:00:22:38.107
    00:27:56.258                : en:00:27:56.258
    00:38:27.764                : en:00:38:27.764
    00:46:59.650                : en:00:46:59.650
    00:52:45.621                : en:00:52:45.621
    01:02:10.060                : en:01:02:10.060
    01:11:50.181                : en:01:11:50.181
    01:18:35.252                : en:01:18:35.252
    01:28:42.734                : en:01:28:42.734
    01:37:57.163                : en:01:37:57.163

  • Peso: 3.17 GB

Sinopsis

Descargar xXx: Reactivated  1080p latino tambien conocida xXx Reactivado. La tercera explosión en la exitosa franquicia seguirá las aventuras de atleta extremo se convertirá en agente del gobierno Xander Cage, esta vez su autoexilio para seguir el guerrero autoritario y peligroso Xiang en una carrera contra el tiempo para tratar de recuperar cualquier precio brazo izquierdo y aparentemente imparable conocido como tarro de Pandora ?? ??. Después de rodearse de un nuevo equipo para las cohortes sed de adrenalina como él, Xander se ve envuelto en una conspiración mortal en el que todo parece indicar que se trata de una conspiración de los más altos niveles de gobierno de todo el mundo.

Ficha técnica

Imágenes, Capturas de la película

Video trailer de la película

Enlaces de descarga

Descargar xXx Reactivated (2017) 1080p Latino
Descargar
Descargar xXx Reactivated (2017) 1080p Latino

dpeliculas

Aportes de DPeliculasHDmega la pass es:dpeliculashdmega.org Aportes de CinemaniaHD la pass es:cinemaniahdd.com
Guardado en : Acción , Aventura , Crimen

PelícuDelas relacionadas

  • La momia (2017) Webdl 1080p Latino

    2017
    La momia (2017) Webdl 1080p Latino

    4.0 1h 50m 2017

    Descargar La momia 2017 1080p webdl  Latino, esta pelicula estara disponible con audio latino final...

    Director: Jo Beckett

    Género: Acción

    Actores: Vera Chok

  • Batman & Harley Quinn (2017) Full Latino

    2017
    Batman & Harley Quinn (2017) Full Latino

    0.0 0h 0m 2017

    Descargar gratis Batman & Harley Quinn (2017) Full Latino. Batman y Nighwing debrán unir fuerzas...

    Director: Sam Liu

    Género: Acción

    Actores: Trevor Devall

  • Spark: A Space Tail (2016) 1080p Latino

    2017
    Spark: A Space Tail (2016) 1080p Latino

    0.0 1h 30m 2017

    Hace 13 años el malvado General Zhong tomó el control del planeta Bana. Ahora no solo quiere gobernar...

    Director: Aaron Woodley

    Género: Animación

    Actores: Susan Sarandon

Comentarios 9
  • Jonna - 09 Mayo, 2017

    que pasó con la gris yo la bajé pero no aparece, quería comentar si subirán las 2 anteriores? Gracias

    • dpelis

      Administrador
      - 09 Mayo, 2017

      es que la resubi con audio ingles pero tuve eror. que elimine el latino, estoy resubiendo. Estan en a antigua pagina las dos. con el mismo configuracion de ripeo

      Saludos

      • Jonna - 09 Mayo, 2017

        Gracias amigo 😀

  • Leonel Hernández Grandela - 04 Mayo, 2017

    los subs en espanol estan incompletos saludos.. la calidad exelente

    • dpelis

      Administrador
      - 04 Mayo, 2017

      los que se reproducen automaticos son los forzados. usted debe seleccionar los subtitulos completos.

  • Jonathan - 04 Mayo, 2017

    la pelicula esta incompleta, ya casi por el final se corta.

    • dpelis

      Administrador
      - 04 Mayo, 2017

      que version, acabo de revisar la 1080p y va bien

      • Jonathan - 04 Mayo, 2017

        la version webdl

        • dpelis

          Administrador
          - 04 Mayo, 2017

          bueno yo revise la 1080p.