Wonder Woman (2017) 3D OU Full 1080p Latino

1.506 vistas
1 estrella2 estrellas3 estrellas4 estrellas5 estrellas (Ninguna valoración todavía)
Cargando…

Información de Wonder Woman (2017) 3D OU Full 1080p Latino

Datos de la película

  • Calidad: Full 1080p
  • Audio: Se especifica abajo de la Sinopsis
  • Subtitulos: Español Latino PGS - Ingles PGS
  • Resolución: 1920x1080p
  • Formato: MKV
  • Codec: H.264
  • Encoder: Dpelis
  • Mediainfo: Ver Ver
  • Wonder Woman (2017) 3D OU FULL 1080p Latino.mkv
    Format                      : Matroska
    Format version              : Version 4 / Version 2
    File size                   : 9.27 GiB
    Duration                    : 2 h 21 min
    Overall bit rate            : 9 393 kb/s
    Movie name                  : DPeliculasHDMega.ORG
    Encoded date                : UTC 2017-09-10 04:50:10
    Writing application         : mkvmerge v10.0.0 ('To Drown In You') 64bit
    Writing library             : libebml v1.3.4 + libmatroska v1.4.5

    Video
    ID                          : 1
    Format                      : AVC
    Format/Info                 : Advanced Video Codec
    Format profile              : [email protected]
    Format settings, CABAC      : Yes
    Format settings, ReFrames   : 2 frames
    Format settings, GOP        : M=3, N=24
    Codec ID                    : V_MPEG4/ISO/AVC
    Duration                    : 2 h 21 min
    Bit rate                    : 4 795 kb/s
    Width                       : 1 920 pixels
    Height                      : 1 080 pixels
    Display aspect ratio        : 16:9
    Frame rate mode             : Constant
    Frame rate                  : 23.976 (24000/1001) FPS
    Color space                 : YUV
    Chroma subsampling          : 4:2:0
    Bit depth                   : 8 bits
    Scan type                   : Progressive
    Bits/(Pixel*Frame)          : 0.096
    Stream size                 : 4.73 GiB (51%)
    Default                     : Yes
    Forced                      : No

    Audio #1
    ID                          : 2
    Format                      : AC-3
    Format/Info                 : Audio Coding 3
    Format settings, Endianness : Big
    Codec ID                    : A_AC3
    Duration                    : 2 h 21 min
    Bit rate mode               : Constant
    Bit rate                    : 448 kb/s
    Channel(s)                  : 6 channels
    Channel positions           : Front: L C R, Side: L R, LFE
    Sampling rate               : 48.0 kHz
    Frame rate                  : 31.250 FPS (1536 spf)
    Bit depth                   : 16 bits
    Compression mode            : Lossy
    Stream size                 : 453 MiB (5%)
    Language                    : Spanish
    Service kind                : Complete Main
    Default                     : Yes
    Forced                      : No

    Audio #2
    ID                          : 3
    Format                      : DTS
    Format/Info                 : Digital Theater Systems
    Format profile              : MA / Core
    Mode                        : 16
    Format settings, Endianness : Big
    Codec ID                    : A_DTS
    Duration                    : 2 h 21 min
    Bit rate mode               : Variable / Constant
    Bit rate                    : 4 133 kb/s / 1 509 kb/s
    Channel(s)                  : 6 channels
    Channel positions           : Front: L C R, Side: L R, LFE
    Sampling rate               : 48.0 kHz
    Frame rate                  : 93.750 FPS (512 spf)
    Bit depth                   : 24 bits
    Compression mode            : Lossless / Lossy
    Stream size                 : 4.08 GiB (44%)
    Language                    : English
    Default                     : No
    Forced                      : No

    Text #1
    ID                          : 4
    Format                      : PGS
    Muxing mode                 : zlib
    Codec ID                    : S_HDMV/PGS
    Codec ID/Info               : Picture based subtitle format used on BDs/HD-DVDs
    Duration                    : 2 h 20 min
    Bit rate                    : 7 746 b/s
    Count of elements           : 3654
    Stream size                 : 7.78 MiB (0%)
    Language                    : English
    Default                     : No
    Forced                      : No

    Text #2
    ID                          : 5
    Format                      : PGS
    Muxing mode                 : zlib
    Codec ID                    : S_HDMV/PGS
    Codec ID/Info               : Picture based subtitle format used on BDs/HD-DVDs
    Duration                    : 2 h 20 min
    Bit rate                    : 6 159 b/s
    Count of elements           : 3174
    Stream size                 : 6.18 MiB (0%)
    Language                    : Spanish
    Default                     : No
    Forced                      : No

    Text #3
    ID                          : 6
    Format                      : PGS
    Muxing mode                 : zlib
    Codec ID                    : S_HDMV/PGS
    Codec ID/Info               : Picture based subtitle format used on BDs/HD-DVDs
    Duration                    : 2 h 19 min
    Bit rate                    : 64 b/s
    Count of elements           : 36
    Stream size                 : 66.1 KiB (0%)
    Language                    : Spanish
    Default                     : No
    Forced                      : No

    Menu
    00:00:00.000                : en:(01)00:00:00:000
    00:10:26.917                : en:(02)00:10:26:917
    00:23:12.557                : en:(03)00:23:12:557
    00:33:10.738                : en:(04)00:33:10:738
    00:43:55.132                : en:(05)00:43:55:132
    00:54:25.553                : en:(06)00:54:25:553
    01:07:38.262                : en:(07)01:07:38:262
    01:22:30.195                : en:(08)01:22:30:195
    01:34:02.845                : en:(09)01:34:02:845
    01:45:37.998                : en:(10)01:45:37:998
    01:57:43.765                : en:(11)01:57:43:765
    02:10:41.416                : en:(12)02:10:41:416

  • Peso: 9,27 GB

Sinopsis

Una princesa amazónica (Gal Gadot) encuentra su vida idílica en una isla ocupada sólo por mujeres guerreras interrumpidas cuando un piloto (Chris Pine) aterriza cerca. Después de rescatarlo, se entera de que la Primera Guerra Mundial está envolviendo el planeta y promete usar sus superpotencias para restaurar la paz. Dirigida por Patty Jenkins (Monster).

Español Latino AC3 5.1 BLURAY – Ingles TRUEHD 7.1 BLURAY

SOLO AUDIO INGLES AC3 5.1

Ficha técnica

Imágenes, Capturas de la película

Video trailer de la película

Enlaces de descarga

Descargar Wonder Woman (2017) 3D OU Full 1080p Latino
Descargar

dpeliculas

Aportes de DPeliculasHDmega la pass es:dpeliculashdmega.org Aportes de CinemaniaHD la pass es:cinemaniahdd.com

PelícuDelas relacionadas

  • Poesía sin fin (2016) Full Latino

    2016
    Poesía sin fin (2016) Full Latino

    0.0 0h 0m 2016

    Descargar gratis Poesía sin fin (2016) Full Latino. A traves de la lente autobiográfica de Alejandro...

    Director: Alejandro Jodorowsky

    Género: Drama

    Actores: Pamela Flores

  • El fugitivo (1993) Full 1080p Latino

    1993
    El fugitivo (1993) Full 1080p Latino

    5.0 2h 13m 1993

    El doctor Richard Kimble es un prestigioso cirujano de Chicago con una vida prácticamente perfecta:...

    Director: Andrew Davis

    Género: Acción

    Actores: Turk Muller

  • Dragon Ball Super (2015) Full 1080p Latino

    2015
    Dragon Ball Super (2015) Full 1080p Latino

    4.1 0h 24m 2015

    Si eres un seguidor de la serie Dragon ball super latino, entonces ahora puedes disfrutar de esta maravillosa...

    Director: Akira Toriyama

    Género: Anime

    Actores: Naoki Tatsuta

Comentarios 7
  • Aldair Jesus - 12 septiembre, 2017

    No digo que sea algo malo, pero probe el audio ingles ac3 que dejaron ahora, y pues como que no me gusto mucho, cuando hay sonidos fuertes como que se satura la bocina y suena medio feo, a comparacion del latino y el ingles trueHD.

    • dpelis

      Administrador
      - 13 septiembre, 2017

      ps que le puedo decir estimado. el audio fue convertido del true al ac3.

      • Aldair Jesus - 14 septiembre, 2017

        Oh ya veo, bueno, igual se agradece la alternativa.

  • C Calva - 11 septiembre, 2017

    Mm!!,, la baje y al verla en esta versión 3D OU parece estar convertida de la película normal (2D) a 3D, ya que el efecto 3D es exactamente el mismo que hace mi Televisión LG 3D de cualquier película en 2D. Si observan deja unas pequeñas franjas negras a los lados y el efecto 3D es SIMULADO.
    Gracias de todas maneras x el esfuerzo!!

    • dpelis

      Administrador
      - 13 septiembre, 2017

      la verdad no se estimado pero es directo del BD. aun que ahora actualize el programa, nose si se deba a eso

  • paul - 10 septiembre, 2017

    excelente amigos .. para el 24 de sep ya tendrán el blu ray 4k en hdr ??? saludos

    • dpelis

      Administrador
      - 10 septiembre, 2017

      hasta que se le quite la proteccion