Advertise here

Wind River (2017) 1080p Subtitulada

961 vistas
1 estrella2 estrellas3 estrellas4 estrellas5 estrellas (Ninguna valoración todavía)
Cargando…

Información de Wind River (2017) 1080p Subtitulada

Datos de la película

  • Calidad: 1080p
  • Audio: Ingles AC3 5.1 BLURAY
  • Subtitulos: Español Latino SRT
  • Resolución: 1920X804
  • Formato: MKV
  • Codec: H.264
  • Encoder: Dpelis
  • Mediainfo: Clic para Mostrar Datos Ver
  • Format                                   : Matroska
    Format version                           : Version 4 / Version 2
    File size                                : 2.76 GiB
    Duration                                 : 1 h 46 min
    Overall bit rate                         : 3 707 kb/s
    Movie name                               : dpeliculashdmega.org
    Encoded date                             : UTC 2017-11-11 07:09:36 / UTC 2017-11-11T03:59:22Z
    Writing application                      : mkvmerge v15.0.0 ('Duel with the Devil') 64-bit
    Writing library                          : libebml v1.3.5 + libmatroska v1.4.5 / Lavf57.7.2

    Video
    ID                                       : 1
    Format                                   : AVC
    Format/Info                              : Advanced Video Codec
    Format profile                           : [email protected]
    Format settings                          : CABAC / 5 Ref Frames
    Format settings, CABAC                   : Yes
    Format settings, RefFrames               : 5 frames
    Codec ID                                 : V_MPEG4/ISO/AVC
    Duration                                 : 1 h 46 min
    Bit rate                                 : 3 249 kb/s
    Nominal bit rate                         : 3 500 kb/s
    Width                                    : 1 920 pixels
    Height                                   : 804 pixels
    Display aspect ratio                     : 2.40:1
    Frame rate mode                          : Constant
    Frame rate                               : 23.976 (24000/1001) FPS
    Color space                              : YUV
    Chroma subsampling                       : 4:2:0
    Bit depth                                : 8 bits
    Scan type                                : Progressive
    Bits/(Pixel*Frame)                       : 0.088
    Stream size                              : 2.42 GiB (88%)
    Title                                    : Wind River (2017) 1080p Subtitulada
    Writing library                          : x264 core 148 r2708 86b7198
    Encoding settings                        : cabac=1 / ref=5 / deblock=1:0:0 / analyse=0x3:0x113 / me=umh / subme=8 / psy=1 / psy_rd=1.00:0.00 / mixed_ref=1 / me_range=16 / chroma_me=1 / trellis=1 / 8x8dct=1 / cqm=0 / deadzone=21,11 / fast_pskip=1 / chroma_qp_offset=-2 / threads=25 / lookahead_threads=4 / sliced_threads=0 / nr=0 / decimate=1 / interlaced=0 / bluray_compat=0 / constrained_intra=0 / bframes=3 / b_pyramid=2 / b_adapt=2 / b_bias=0 / direct=3 / weightb=1 / open_gop=0 / weightp=2 / keyint=240 / keyint_min=24 / scenecut=40 / intra_refresh=0 / rc_lookahead=50 / rc=abr / mbtree=1 / bitrate=3500 / ratetol=1.0 / qcomp=0.60 / qpmin=0 / qpmax=69 / qpstep=4 / vbv_maxrate=62500 / vbv_bufsize=78125 / nal_hrd=none / filler=0 / ip_ratio=1.40 / aq=1:1.00
    Language                                 : English
    Default                                  : Yes
    Forced                                   : No
    Color range                              : Limited
    Color primaries                          : BT.709
    Transfer characteristics                 : BT.709
    Matrix coefficients                      : BT.709
    Statistics Tags Issue                    : mkvmerge v15.0.0 ('Duel with the Devil') 64-bit 2017-11-11 07:09:36 / mkvmerge v15.0.0 ('Duel with the Devil') 64-bit 2017-11-11 07:09:36 / UTC 2017-11-11T03:59:22Z
    FromStats_BitRate                        : 3320977
    FromStats_Duration                       : 01:46:47.068000000
    FromStats_FrameCount                     : 153616
    FromStats_StreamSize                     : 2659716320

    Audio
    ID                                       : 2
    Format                                   : AC-3
    Format/Info                              : Audio Coding 3
    Format settings, Endianness              : Big
    Codec ID                                 : A_AC3
    Duration                                 : 1 h 46 min
    Bit rate mode                            : Constant
    Bit rate                                 : 384 kb/s
    Channel(s)                               : 6 channels
    Channel positions                        : Front: L C R, Side: L R, LFE
    Sampling rate                            : 48.0 kHz
    Frame rate                               : 31.250 FPS (1536 SPF)
    Bit depth                                : 16 bits
    Compression mode                         : Lossy
    Delay relative to video                  : -5 ms
    Stream size                              : 293 MiB (10%)
    Title                                    : Ingles-AC3
    Language                                 : English
    Service kind                             : Complete Main
    Default                                  : Yes
    Forced                                   : No
    Statistics Tags Issue                    : mkvmerge v15.0.0 ('Duel with the Devil') 64-bit 2017-11-11 07:09:36 / mkvmerge v15.0.0 ('Duel with the Devil') 64-bit 2017-11-11 07:09:36 / UTC 2017-11-11T03:59:22Z
    FromStats_BitRate                        : 384000
    FromStats_Duration                       : 01:46:47.104000000
    FromStats_FrameCount                     : 200222
    FromStats_StreamSize                     : 307540992

    Text
    ID                                       : 3
    Format                                   : UTF-8
    Codec ID                                 : S_TEXT/UTF8
    Codec ID/Info                            : UTF-8 Plain Text
    Language                                 : Spanish
    Default                                  : Yes
    Forced                                   : No
    Statistics Tags Issue                    : mkvmerge v15.0.0 ('Duel with the Devil') 64-bit 2017-11-11 07:09:36 / mkvmerge v15.0.0 ('Duel with the Devil') 64-bit 2017-11-11 07:09:36 / UTC 2017-11-11T03:59:22Z
    FromStats_BitRate                        : 58
    FromStats_Duration                       : 01:39:43.445000000
    FromStats_FrameCount                     : 1381
    FromStats_StreamSize                     : 43433

    Menu
    00:00:00.000                             : :00:00:00.000
    00:06:01.695                             : :00:06:01.695
    00:10:42.475                             : :00:10:42.433
    00:14:55.395                             : :00:14:55.394
    00:19:18.741                             : :00:19:18.741
    00:25:52.342                             : :00:25:52.342
    00:32:02.963                             : :00:32:02.921
    00:37:13.648                             : :00:37:13.481
    00:43:34.529                             : :00:43:34.529
    00:52:17.259                             : :00:52:17.259
    01:00:22.536                             : :01:00:22.536
    01:07:09.484                             : :01:07:09.484
    01:10:57.920                             : :01:10:57.920
    01:18:39.590                             : :01:18:39.590
    01:23:46.104                             : :01:23:46.104
    01:31:00.538                             : :01:31:00.538
    01:36:46.592                             : :01:36:46.592
    01:39:41.642                             : :01:39:41.642

  • Peso: 2.76 GiB

Sinopsis

Wind River gira en torno a un cazador de coyotes traumatizado por la muerte de su hija, que un día encuentra el cadáver de una chica en el bosque. Eventualmente recurrirá a la ayuda de una inexperta agente del FBI para averiguar quién es el responsable.

Ficha técnica

  • Titulo original: Wind River
  • Fecha de lanzamiento: 03-08-2017 (Canada, United Kingdom, United States of America)
  • Director: Taylor Sheridan
  • Género: Acción, Crimen, Misterio, Suspense
  • Puntuación: 0.0 0 votos
  • Duración:
    1 h 46 min

Video trailer de la película

Enlaces de descarga

Descargar Wind River (2017) 1080p Subtitulada
Descargar

dpeliculas

Aportes de DPeliculasHDmega la pass es:dpeliculashdmega.org Aportes de CinemaniaHD la pass es:cinemaniahdd.com
Guardado en : Acción , Crimen , Misterio , Suspense

Películas relacionadas

  • Avatar (2009) EXTENDED Full 1080p Latino

    2009
    Avatar (2009) EXTENDED Full 1080p Latino

    0.0 2 h 58 min 2009

    Jake Sully, un ex-marine confinado a una silla de ruedas, es reclutado para viajar al planeta Pandora,...

    Director: James Cameron

    Género: Acción

    Actores: Zoe Saldana

  • 300: El origen de un imperio (2014) Full 1080p Latino

    2014
    300: El origen de un imperio (2014) Full 1080p Latino

    5.0 1 h 42 min 2014

    La historia se ambienta en el año 490 a.C., unos diez años antes de la batalla de las Termópilas....

    Director: Noam Murro

    Género: Acción

    Actores: Wayne Dalglish

  • Imparable (2010) Full 1080p Latino

    2010
    Imparable (2010) Full 1080p Latino

    5.0 1 h 38 min 2010

    El destino cruza las vidas de un veterano ingeniero y la de un joven conductor cuando ambos tengan que...

    Director: Tony Scott

    Género: Acción

    Actores: Toni Saladna

  • Atrápame si puedes (2002) Full 1080p Latino

    2002
    Atrápame si puedes (2002) Full 1080p Latino

    0.0 2h 20m 2002

    Frank Abagnale Jr. trabajó como médico, abogado y copiloto de una de las grandes líneas aéreas, todo...

    Director: Steven Spielberg

    Género: Crimen

    Actores: William Lauzon

Comentarios 2
  • sebas - 18 noviembre, 2017

    cuándo estará en latino ??

    • Dpelis2 pelis2

      Autor
      - 18 noviembre, 2017

      Por lo pronto lo hay fecha para audio Latino…