Wilson (2017) Full 1080p Latino

856 vistas
1 estrella2 estrellas3 estrellas4 estrellas5 estrellas (Ninguna valoración todavía)
Cargando…

Información de Wilson (2017) Full 1080p Latino

Datos de la película

  • Calidad: Full 1080p
  • Audio: Español Latino AC3 5.1 BLURAY - Ingles DTS 5.1 BLURAY
  • Subtitulos: Español Latino PGS - Ingles PGS
  • Resolución: 1920x1080p
  • Formato: MKV
  • Codec: H.264
  • Encoder: Dpelis
  • Mediainfo: Ver Ver
  • Wilson.2017.Full.1080P.Latino.mkv
    Format                      : Matroska
    Format version              : Version 4 / Version 2
    File size                   : 3.72 GiB
    Duration                    : 1 h 34 min
    Overall bit rate            : 5 629 kb/s
    Movie name                  : DPeliculasHDMega.ORG
    Encoded date                : UTC 2017-06-09 23:30:57 / UTC 2017-06-08T13:44:06Z
    Writing application         : mkvmerge v10.0.0 ('To Drown In You') 64bit
    Writing library             : libebml v1.3.4 + libmatroska v1.4.5 / Lavf57.7.2

    Video
    ID                          : 1
    Format                      : AVC
    Format/Info                 : Advanced Video Codec
    Format profile              : [email protected]
    Format settings, CABAC      : Yes
    Format settings, ReFrames   : 4 frames
    Codec ID                    : V_MPEG4/ISO/AVC
    Duration                    : 1 h 34 min
    Bit rate                    : 3 560 kb/s
    Width                       : 1 920 pixels
    Height                      : 1 080 pixels
    Display aspect ratio        : 16:9
    Frame rate mode             : Constant
    Frame rate                  : 23.976 (24000/1001) FPS
    Color space                 : YUV
    Chroma subsampling          : 4:2:0
    Bit depth                   : 8 bits
    Scan type                   : Progressive
    Bits/(Pixel*Frame)          : 0.072
    Stream size                 : 2.35 GiB (63%)
    Writing library             : x264 core 148 r2708 86b7198
    Encoding settings           : cabac=1 / ref=4 / deblock=1:0:0 / analyse=0x3:0x133 / me=esa / subme=10 / psy=1 / psy_rd=1.00:0.00 / mixed_ref=1 / me_range=24 / chroma_me=1 / trellis=2 / 8x8dct=1 / cqm=0 / deadzone=21,11 / fast_pskip=1 / chroma_qp_offset=-2 / threads=12 / lookahead_threads=2 / sliced_threads=0 / nr=0 / decimate=1 / interlaced=0 / bluray_compat=0 / constrained_intra=0 / bframes=8 / b_pyramid=2 / b_adapt=2 / b_bias=0 / direct=3 / weightb=1 / open_gop=0 / weightp=2 / keyint=240 / keyint_min=24 / scenecut=40 / intra_refresh=0 / rc_lookahead=60 / rc=crf / mbtree=1 / crf=20.0 / qcomp=0.60 / qpmin=0 / qpmax=69 / qpstep=4 / vbv_maxrate=62500 / vbv_bufsize=78125 / crf_max=0.0 / nal_hrd=none / filler=0 / ip_ratio=1.40 / aq=1:1.00
    Default                     : Yes
    Forced                      : No
    Color range                 : Limited
    Color primaries             : BT.709
    Transfer characteristics    : BT.709
    Matrix coefficients         : BT.709
    Statistics Tags Issue       : mkvmerge v10.0.0 ('To Drown In You') 64bit 2017-06-09 23:30:57 / mkvmerge v10.0.0 ('To Drown In You') 64bit 2017-06-09 23:30:57 / UTC 2017-06-08T13:44:06Z
    FromStats_BitRate           : 3644101
    FromStats_Duration          : 01:34:29.915000000
    FromStats_FrameCount        : 135942
    FromStats_StreamSize        : 2582718133

    Audio #1
    ID                          : 2
    Format                      : AC-3
    Format/Info                 : Audio Coding 3
    Format settings, Endianness : Big
    Codec ID                    : A_AC3
    Duration                    : 1 h 34 min
    Bit rate mode               : Constant
    Bit rate                    : 448 kb/s
    Channel(s)                  : 6 channels
    Channel positions           : Front: L C R, Side: L R, LFE
    Sampling rate               : 48.0 kHz
    Frame rate                  : 31.250 FPS (1536 spf)
    Bit depth                   : 16 bits
    Compression mode            : Lossy
    Delay relative to video     : 5 ms
    Stream size                 : 303 MiB (8%)
    Title                       : Surround
    Language                    : Spanish
    Service kind                : Complete Main
    Default                     : Yes
    Forced                      : No
    Statistics Tags Issue       : mkvmerge v10.0.0 ('To Drown In You') 64bit 2017-06-09 23:30:57 / mkvmerge v10.0.0 ('To Drown In You') 64bit 2017-06-09 23:30:57 / UTC 2017-06-08T13:44:06Z
    FromStats_BitRate           : 448000
    FromStats_Duration          : 01:34:29.952000000
    FromStats_FrameCount        : 177186
    FromStats_StreamSize        : 317517312

    Audio #2
    ID                          : 3
    Format                      : DTS
    Format/Info                 : Digital Theater Systems
    Mode                        : 16
    Format settings, Endianness : Big
    Codec ID                    : A_DTS
    Duration                    : 1 h 34 min
    Bit rate mode               : Constant
    Bit rate                    : 1 509 kb/s
    Channel(s)                  : 6 channels
    Channel positions           : Front: L C R, Side: L R, LFE
    Sampling rate               : 48.0 kHz
    Frame rate                  : 93.750 FPS (512 spf)
    Bit depth                   : 24 bits
    Compression mode            : Lossy
    Stream size                 : 1 020 MiB (27%)
    Title                       : Surround
    Language                    : English
    Default                     : No
    Forced                      : No
    Statistics Tags Issue       : mkvmerge v10.0.0 ('To Drown In You') 64bit 2017-06-09 23:30:57 / mkvmerge v10.0.0 ('To Drown In You') 64bit 2017-06-09 23:30:57 / UTC 2017-06-08T13:44:06Z
    FromStats_BitRate           : 1509000
    FromStats_Duration          : 01:34:29.952000000
    FromStats_FrameCount        : 531558
    FromStats_StreamSize        : 1069494696

    Text #1
    ID                          : 4
    Format                      : PGS
    Muxing mode                 : zlib
    Codec ID                    : S_HDMV/PGS
    Codec ID/Info               : Picture based subtitle format used on BDs/HD-DVDs
    Language                    : Spanish
    Default                     : No
    Forced                      : No
    Statistics Tags Issue       : mkvmerge v10.0.0 ('To Drown In You') 64bit 2017-06-09 23:30:57 / mkvmerge v10.0.0 ('To Drown In You') 64bit 2017-06-09 23:30:57 / UTC 2017-06-08T13:44:06Z
    FromStats_BitRate           : 11100
    FromStats_Duration          : 01:33:35.318000000
    FromStats_FrameCount        : 2630
    FromStats_StreamSize        : 7791678

    Text #2
    ID                          : 5
    Format                      : PGS
    Muxing mode                 : zlib
    Codec ID                    : S_HDMV/PGS
    Codec ID/Info               : Picture based subtitle format used on BDs/HD-DVDs
    Language                    : English
    Default                     : No
    Forced                      : No
    Statistics Tags Issue       : mkvmerge v10.0.0 ('To Drown In You') 64bit 2017-06-09 23:30:57 / mkvmerge v10.0.0 ('To Drown In You') 64bit 2017-06-09 23:30:57 / UTC 2017-06-08T13:44:06Z
    FromStats_BitRate           : 14893
    FromStats_Duration          : 01:28:18.001000000
    FromStats_FrameCount        : 3422
    FromStats_StreamSize        : 9863371

    Text #3
    ID                          : 6
    Format                      : UTF-8
    Codec ID                    : S_TEXT/UTF8
    Codec ID/Info               : UTF-8 Plain Text
    Language                    : Spanish
    Default                     : Yes
    Forced                      : No
    Statistics Tags Issue       : mkvmerge v10.0.0 ('To Drown In You') 64bit 2017-06-09 23:30:57 / mkvmerge v10.0.0 ('To Drown In You') 64bit 2017-06-09 23:30:57 / UTC 2017-06-08T13:44:06Z
    FromStats_BitRate           : 45
    FromStats_Duration          : 00:00:20.100000000
    FromStats_FrameCount        : 1
    FromStats_StreamSize        : 115

    Menu
    00:00:00.000                : :Chapter 1
    00:04:02.492                : :Chapter 2
    00:07:55.642                : :Chapter 3
    00:10:50.567                : :Chapter 4
    00:15:34.183                : :Chapter 5
    00:18:46.042                : :Chapter 6
    00:21:33.918                : :Chapter 7
    00:25:23.105                : :Chapter 8
    00:31:35.435                : :Chapter 9
    00:36:17.717                : :Chapter 10
    00:41:33.074                : :Chapter 11
    00:45:02.074                : :Chapter 12
    00:50:21.185                : :Chapter 13
    00:53:01.178                : :Chapter 14
    00:55:47.845                : :Chapter 15
    00:59:14.509                : :Chapter 16
    01:03:24.217                : :Chapter 17
    01:06:02.750                : :Chapter 18
    01:09:37.507                : :Chapter 19
    01:12:45.361                : :Chapter 20
    01:17:21.971                : :Chapter 21
    01:20:29.825                : :Chapter 22
    01:25:38.216                : :Chapter 23
    01:27:43.592                : :Chapter 24

  • Peso: 3.72 GB

Sinopsis

Descargar La Pelicula de Wilson 2017 HD  1080p Latino Tras la muerte de su padre, Wilson, más solo que nunca, se propone encontrar a su ex mujer y recuperar su relación; de ese modo descubre que tiene una hija adolescente que nació tras la ruptura de su matrimonio y que fue dada en adopción. Wilson fuerza el reencuentro con su ex mujer y su desconocida hija, pero el soñado encuentro se alejará bastante de un final feliz.

 

Resubida: Junio 19 2017. Reparación de subtitulo Pegados

Ficha técnica

Imágenes, Capturas de la película

Video trailer de la película

Enlaces de descarga

Descargar Wilson (2017) Full 1080p Latino
Descargar

dpeliculas

Aportes de DPeliculasHDmega la pass es:dpeliculashdmega.org Aportes de CinemaniaHD la pass es:cinemaniahdd.com
Guardado en : Comedia , FULL 1080p Pesadas

PelícuDelas relacionadas

  • The Resurrection of Gavin Stone (2017) 1080p Latino

    2017
    The Resurrection of Gavin Stone (2017) 1080p Latino

    0.0 1 h 31 min 2017

    Una antigua estrella infantil se ve obligada a prestar un servicio comunitario en una gran iglesia de...

    Director: Dallas Jenkins

    Género: Comedia

    Actores: Tim Frank

  • Regreso al futuro III (1990) Full 1080p Latino

    1990
    Regreso al futuro III (1990) Full 1080p Latino

    0.0 1 h 58 min 1990

    Doc tiene el coche-máquina del tiempo averiado, y está prisionero en la época del salvaje oeste. Por...

    Director: Robert Zemeckis

    Género: Aventura

    Actores: Wendie Jo Sperber

  • Regreso al futuro II (1989) Full 1080p Latino

    1989
    Regreso al futuro II (1989) Full 1080p Latino

    0.0 1h 45m 1989

    Aunque a Marty McFly todavía le falta tiempo para asimilar el hecho de estar viviendo dentro de la familia...

    Director: Robert Zemeckis

    Género: Aventura

    Actores: Wesley Mann

  • Regreso al futuro (1985) Full 1080p Latino

    1985
    Regreso al futuro (1985) Full 1080p Latino

    5.0 1 h 56 min 1985

    Marty McFly es un adolescente amigo de Doc, un científico a los que todos menos él toman por chiflado....

    Director: Robert Zemeckis

    Género: Aventura

    Actores: Will Hare

  • The Good Catholic (2017) Full 1080p Latino

    2017
    The Good Catholic (2017) Full 1080p Latino

    0.0 1 h 37 min 2017

    Daniel amaba su trabajo como sacerdote de un pequeño pueblo más que nada. Entonces conoció a Jane....

    Director: Paul Shoulberg

    Género: Comedia

    Actores: Zachary Spicer

Comentarios 6
  • gaaq - 14 junio, 2017

    Bueno ante todo quiero agradecer de corazón, todo el esfuerzo. que ponen en esta maravillosa pagina.

  • gaaq - 13 junio, 2017

    parece que están los subtítulos pegados.

    • dpelis

      Administrador
      - 14 junio, 2017

      debe cambiar el nosmbre de los subtitulos que estan en la carpeta

      • gaaq - 14 junio, 2017

        Fue lo primero que probé. Los sub. español no se pueden sacar.

  • Kevin Chávez - 11 junio, 2017

    Buenas, al tocar “Paste publico” para ver los enlaces, me sale error 404 cuando toco la opción “ver enlaces”… Ojalá lo soluciones!!, saludos.

    • dpelis

      Administrador
      - 11 junio, 2017

      intente de nuevo, me funciona bien