Wilson (2017) 1080p Latino

764 vistas
1 estrella2 estrellas3 estrellas4 estrellas5 estrellas (Ninguna valoración todavía)
Cargando…

Información de Wilson (2017) 1080p Latino

Datos de la película

  • Calidad: 1080p
  • Audio: Español Latino AC3 5.1 BLURAY - Ingles AC3 5.1 BLURAY
  • Subtitulos: Español Latino SRT - Ingles SRT
  • Resolución: 1920x1036p
  • Formato: MKV
  • Codec: H.264
  • Encoder: Dpelis
  • Mediainfo: Ver Ver
  • Wilson 2017 1080p LATINO.mkv
    Format                      : Matroska
    Format version              : Version 4 / Version 2
    File size                   : 2.85 GiB
    Duration                    : 1 h 34 min
    Overall bit rate            : 4 316 kb/s
    Encoded date                : UTC 2017-06-08 03:35:08 / UTC 2017-06-07T23:59:59Z
    Writing application         : mkvmerge v10.0.0 ('To Drown In You') 64bit
    Writing library             : libebml v1.3.4 + libmatroska v1.4.5 / Lavf57.7.2

    Video
    ID                          : 1
    Format                      : AVC
    Format/Info                 : Advanced Video Codec
    Format profile              : [email protected]
    Format settings, CABAC      : Yes
    Format settings, ReFrames   : 4 frames
    Codec ID                    : V_MPEG4/ISO/AVC
    Duration                    : 1 h 34 min
    Bit rate                    : 3 500 kb/s
    Width                       : 1 920 pixels
    Height                      : 1 040 pixels
    Display aspect ratio        : 1.85:1
    Frame rate mode             : Constant
    Frame rate                  : 23.976 (24000/1001) FPS
    Color space                 : YUV
    Chroma subsampling          : 4:2:0
    Bit depth                   : 8 bits
    Scan type                   : Progressive
    Bits/(Pixel*Frame)          : 0.073
    Stream size                 : 2.24 GiB (79%)
    Writing library             : x264 core 148 r2708 86b7198
    Encoding settings           : cabac=1 / ref=3 / deblock=1:0:0 / analyse=0x3:0x113 / me=hex / subme=7 / psy=1 / psy_rd=1.00:0.00 / mixed_ref=1 / me_range=16 / chroma_me=1 / trellis=1 / 8x8dct=1 / cqm=0 / deadzone=21,11 / fast_pskip=1 / chroma_qp_offset=-2 / threads=12 / lookahead_threads=2 / sliced_threads=0 / nr=0 / decimate=1 / interlaced=0 / bluray_compat=0 / constrained_intra=0 / bframes=3 / b_pyramid=2 / b_adapt=1 / b_bias=0 / direct=1 / weightb=1 / open_gop=0 / weightp=2 / keyint=240 / keyint_min=24 / scenecut=40 / intra_refresh=0 / rc_lookahead=40 / rc=abr / mbtree=1 / bitrate=3500 / ratetol=1.0 / qcomp=0.60 / qpmin=0 / qpmax=69 / qpstep=4 / vbv_maxrate=62500 / vbv_bufsize=78125 / nal_hrd=none / filler=0 / ip_ratio=1.40 / aq=1:1.00
    Default                     : Yes
    Forced                      : No
    Color range                 : Limited
    Color primaries             : BT.709
    Transfer characteristics    : BT.709
    Matrix coefficients         : BT.709
    Statistics Tags Issue       : mkvmerge v10.0.0 ('To Drown In You') 64bit 2017-06-08 03:35:08 / mkvmerge v10.0.0 ('To Drown In You') 64bit 2017-06-08 03:35:08 / UTC 2017-06-07T23:59:59Z
    FromStats_BitRate           : 3482085
    FromStats_Duration          : 01:34:29.873000000
    FromStats_FrameCount        : 135941
    FromStats_StreamSize        : 2467872799

    Audio #1
    ID                          : 2
    Format                      : AC-3
    Format/Info                 : Audio Coding 3
    Format settings, Endianness : Big
    Codec ID                    : A_AC3
    Duration                    : 1 h 34 min
    Bit rate mode               : Constant
    Bit rate                    : 448 kb/s
    Channel(s)                  : 6 channels
    Channel positions           : Front: L C R, Side: L R, LFE
    Sampling rate               : 48.0 kHz
    Frame rate                  : 31.250 FPS (1536 spf)
    Bit depth                   : 16 bits
    Compression mode            : Lossy
    Delay relative to video     : -5 ms
    Stream size                 : 303 MiB (10%)
    Language                    : Spanish
    Service kind                : Complete Main
    Default                     : Yes
    Forced                      : No
    Statistics Tags Issue       : mkvmerge v10.0.0 ('To Drown In You') 64bit 2017-06-08 03:35:08 / mkvmerge v10.0.0 ('To Drown In You') 64bit 2017-06-08 03:35:08 / UTC 2017-06-07T23:59:59Z
    FromStats_BitRate           : 448000
    FromStats_Duration          : 01:34:29.952000000
    FromStats_FrameCount        : 177186
    FromStats_StreamSize        : 317517312

    Audio #2
    ID                          : 3
    Format                      : AC-3
    Format/Info                 : Audio Coding 3
    Format settings, Endianness : Big
    Codec ID                    : A_AC3
    Duration                    : 1 h 34 min
    Bit rate mode               : Constant
    Bit rate                    : 384 kb/s
    Channel(s)                  : 6 channels
    Channel positions           : Front: L C R, Side: L R, LFE
    Sampling rate               : 48.0 kHz
    Frame rate                  : 31.250 FPS (1536 spf)
    Bit depth                   : 16 bits
    Compression mode            : Lossy
    Delay relative to video     : -5 ms
    Stream size                 : 260 MiB (9%)
    Title                       : Surround
    Language                    : English
    Service kind                : Complete Main
    Default                     : No
    Forced                      : No
    Statistics Tags Issue       : mkvmerge v10.0.0 ('To Drown In You') 64bit 2017-06-08 03:35:08 / mkvmerge v10.0.0 ('To Drown In You') 64bit 2017-06-08 03:35:08 / UTC 2017-06-07T23:59:59Z
    FromStats_BitRate           : 384000
    FromStats_Duration          : 01:34:29.952000000
    FromStats_FrameCount        : 177186
    FromStats_StreamSize        : 272157696

    Text #1
    ID                          : 4
    Format                      : UTF-8
    Codec ID                    : S_TEXT/UTF8
    Codec ID/Info               : UTF-8 Plain Text
    Language                    : Spanish
    Default                     : No
    Forced                      : No
    Statistics Tags Issue       : mkvmerge v10.0.0 ('To Drown In You') 64bit 2017-06-08 03:35:08 / mkvmerge v10.0.0 ('To Drown In You') 64bit 2017-06-08 03:35:08 / UTC 2017-06-07T23:59:59Z
    FromStats_BitRate           : 62
    FromStats_Duration          : 01:28:11.709000000
    FromStats_FrameCount        : 1314
    FromStats_StreamSize        : 41601

    Text #2
    ID                          : 5
    Format                      : UTF-8
    Codec ID                    : S_TEXT/UTF8
    Codec ID/Info               : UTF-8 Plain Text
    Title                       : FORZADOS
    Language                    : Spanish
    Default                     : Yes
    Forced                      : No
    Statistics Tags Issue       : mkvmerge v10.0.0 ('To Drown In You') 64bit 2017-06-08 03:35:08 / mkvmerge v10.0.0 ('To Drown In You') 64bit 2017-06-08 03:35:08 / UTC 2017-06-07T23:59:59Z
    FromStats_BitRate           : 0
    FromStats_Duration          : 00:52:40.624000000
    FromStats_FrameCount        : 3
    FromStats_StreamSize        : 81

    Text #3
    ID                          : 6
    Format                      : UTF-8
    Codec ID                    : S_TEXT/UTF8
    Codec ID/Info               : UTF-8 Plain Text
    Language                    : English
    Default                     : No
    Forced                      : No
    Statistics Tags Issue       : mkvmerge v10.0.0 ('To Drown In You') 64bit 2017-06-08 03:35:08 / mkvmerge v10.0.0 ('To Drown In You') 64bit 2017-06-08 03:35:08 / UTC 2017-06-07T23:59:59Z
    FromStats_BitRate           : 65
    FromStats_Duration          : 01:28:23.901000000
    FromStats_FrameCount        : 1578
    FromStats_StreamSize        : 43341

  • Peso: 2.85 GB

Sinopsis

Woody Harrelson interpreta a Wilson, un solitario, neurótico, divertido y honesto misántropo de mediana edad que se reconcilia con su mujer (Laura Dern), de la que se separó, y que recibe una nueva oportunidad para ser feliz cuando descubre que tiene una hija adolescente (Isabella Amara), a la que no conocía. De una manera bastante extravagante y retorcida, se propone conectar con ella.

Ficha técnica

  • Titulo original: Wilson
  • Fecha de lanzamiento: 24-03-2017 (United States of America)
  • Director: Craig Johnson, Richard L. Fox
  • Género: Comedia
  • Puntuación: 0.0 0 votos
  • Duración:
    1h 34m

Imágenes, Capturas de la película

Video trailer de la película

Enlaces de descarga

Descargar Wilson (2017) 1080p Latino
Descargar

dpeliculas

Aportes de DPeliculasHDmega la pass es:dpeliculashdmega.org Aportes de CinemaniaHD la pass es:cinemaniahdd.com
Guardado en : Comedia

PelícuDelas relacionadas

  • Spark: A Space Tail (2016) 1080p Latino

    2017
    Spark: A Space Tail (2016) 1080p Latino

    0.0 1h 30m 2017

    Hace 13 años el malvado General Zhong tomó el control del planeta Bana. Ahora no solo quiere gobernar...

    Director: Aaron Woodley

    Género: Animación

    Actores: Susan Sarandon

  • Una noche fuera de control (2017) 1080p Latino

    2017
    Una noche fuera de control (2017) 1080p Latino

    0.0 1h 40m 2017

    Descargar Rough Night 1080p latino, tambien conocida como Una noche fuera de control  Latino, Pelicula...

    Director: Lucia Aniello

    Género: Comedia

    Actores: Zoë Kravitz

  • Baywatch (2017) UNRATED Full 1080p Latino

    2017
    Baywatch (2017) UNRATED Full 1080p Latino

    3.0 2h 1m 2017

    'Los vigilantes de la playa' narra la historia del esforzado socorrista Mitch Buchannon (Johnson) y su...

    Director: Seth Gordon

    Género: Acción

    Actores: Zachary Vazquez

Comentarios 2
  • Byron - 16 Junio, 2017

    Que paso con la caratula gris? por que la borraron?

    • dpelis

      Administrador
      - 16 Junio, 2017

      subtitulos latino pegados. fin de semana. se publicara nueva