Advertise here

White Girl (2016) 1080p Latino

1.761 vistas
1 estrella2 estrellas3 estrellas4 estrellas5 estrellas (1 votos, promedio: 5,00 de 5)
Cargando…

Información de White Girl (2016) 1080p Latino

Datos de la película

  • Calidad: 1080p
  • Audio: Español Latino AC3 2.0 DVD - Ingles AC3 5.1 BLURAY
  • Subtitulos: Español Latino SRT - Ingles SRT
  • Resolución: 1920x800p
  • Formato: MKV
  • Codec: H.264
  • Encoder: Dpelis
  • Mediainfo: Clic para Mostrar Datos Ver
  • White.Girl.2016.1080p.latino.Dpelis.mkv
    Format                      : Matroska
    Format version              : Version 4 / Version 2
    File size                   : 2.60 GiB
    Duration                    : 1 h 30 min
    Overall bit rate            : 4 113 kb/s
    Movie name                  : DPeliculasHDMega.ORG
    Encoded date                : UTC 2017-05-14 01:52:07 / UTC 2017-05-13T23:53:59Z
    Writing application         : mkvmerge v10.0.0 ('To Drown In You') 64bit
    Writing library             : libebml v1.3.4 + libmatroska v1.4.5 / Lavf57.7.2

    Video
    ID                          : 1
    Format                      : AVC
    Format/Info                 : Advanced Video Codec
    Format profile              : [email protected]
    Format settings, CABAC      : Yes
    Format settings, ReFrames   : 4 frames
    Codec ID                    : V_MPEG4/ISO/AVC
    Duration                    : 1 h 30 min
    Bit rate                    : 3 500 kb/s
    Width                       : 1 920 pixels
    Height                      : 802 pixels
    Display aspect ratio        : 2.40:1
    Frame rate mode             : Constant
    Frame rate                  : 23.976 (24000/1001) FPS
    Color space                 : YUV
    Chroma subsampling          : 4:2:0
    Bit depth                   : 8 bits
    Scan type                   : Progressive
    Bits/(Pixel*Frame)          : 0.095
    Stream size                 : 2.14 GiB (82%)
    Writing library             : x264 core 148 r2708 86b7198
    Encoding settings           : cabac=1 / ref=3 / deblock=1:0:0 / analyse=0x3:0x113 / me=hex / subme=7 / psy=1 / psy_rd=1.00:0.00 / mixed_ref=1 / me_range=16 / chroma_me=1 / trellis=1 / 8x8dct=1 / cqm=0 / deadzone=21,11 / fast_pskip=1 / chroma_qp_offset=-2 / threads=12 / lookahead_threads=2 / sliced_threads=0 / nr=0 / decimate=1 / interlaced=0 / bluray_compat=0 / constrained_intra=0 / bframes=3 / b_pyramid=2 / b_adapt=1 / b_bias=0 / direct=1 / weightb=1 / open_gop=0 / weightp=2 / keyint=240 / keyint_min=24 / scenecut=40 / intra_refresh=0 / rc_lookahead=40 / rc=abr / mbtree=1 / bitrate=3500 / ratetol=1.0 / qcomp=0.60 / qpmin=0 / qpmax=69 / qpstep=4 / vbv_maxrate=62500 / vbv_bufsize=78125 / nal_hrd=none / filler=0 / ip_ratio=1.40 / aq=1:1.00
    Default                     : Yes
    Forced                      : No
    Color range                 : Limited
    Color primaries             : BT.709
    Transfer characteristics    : BT.709
    Matrix coefficients         : BT.709
    Statistics Tags Issue       : mkvmerge v10.0.0 ('To Drown In You') 64bit 2017-05-14 01:52:07 / mkvmerge v10.0.0 ('To Drown In You') 64bit 2017-05-14 01:52:07 / UTC 2017-05-13T23:53:59Z
    FromStats_BitRate           : 3474577
    FromStats_Duration          : 01:30:14.868000000
    FromStats_FrameCount        : 129827
    FromStats_StreamSize        : 2351797291

    Audio #1
    ID                          : 2
    Format                      : AC-3
    Format/Info                 : Audio Coding 3
    Format settings, Endianness : Big
    Codec ID                    : A_AC3
    Duration                    : 1 h 30 min
    Bit rate mode               : Constant
    Bit rate                    : 256 kb/s
    Channel(s)                  : 2 channels
    Channel positions           : Front: L R
    Sampling rate               : 48.0 kHz
    Frame rate                  : 31.250 FPS (1536 spf)
    Bit depth                   : 16 bits
    Compression mode            : Lossy
    Delay relative to video     : -5 ms
    Stream size                 : 166 MiB (6%)
    Title                       : Stereo
    Language                    : Spanish
    Service kind                : Complete Main
    Default                     : Yes
    Forced                      : No
    Statistics Tags Issue       : mkvmerge v10.0.0 ('To Drown In You') 64bit 2017-05-14 01:52:07 / mkvmerge v10.0.0 ('To Drown In You') 64bit 2017-05-14 01:52:07 / UTC 2017-05-13T23:53:59Z
    FromStats_BitRate           : 256000
    FromStats_Duration          : 01:30:33.280000000
    FromStats_FrameCount        : 169790
    FromStats_StreamSize        : 173864960

    Audio #2
    ID                          : 3
    Format                      : AC-3
    Format/Info                 : Audio Coding 3
    Format settings, Endianness : Big
    Codec ID                    : A_AC3
    Duration                    : 1 h 30 min
    Bit rate mode               : Constant
    Bit rate                    : 384 kb/s
    Channel(s)                  : 6 channels
    Channel positions           : Front: L C R, Side: L R, LFE
    Sampling rate               : 48.0 kHz
    Frame rate                  : 31.250 FPS (1536 spf)
    Bit depth                   : 16 bits
    Compression mode            : Lossy
    Delay relative to video     : -5 ms
    Stream size                 : 249 MiB (9%)
    Title                       : Surround
    Language                    : English
    Service kind                : Complete Main
    Default                     : No
    Forced                      : No
    Statistics Tags Issue       : mkvmerge v10.0.0 ('To Drown In You') 64bit 2017-05-14 01:52:07 / mkvmerge v10.0.0 ('To Drown In You') 64bit 2017-05-14 01:52:07 / UTC 2017-05-13T23:53:59Z
    FromStats_BitRate           : 384000
    FromStats_Duration          : 01:30:14.816000000
    FromStats_FrameCount        : 169213
    FromStats_StreamSize        : 259911168

    Text #1
    ID                          : 4
    Format                      : PGS
    Muxing mode                 : zlib
    Codec ID                    : S_HDMV/PGS
    Codec ID/Info               : Picture based subtitle format used on BDs/HD-DVDs
    Language                    : Spanish
    Default                     : No
    Forced                      : No
    Statistics Tags Issue       : mkvmerge v10.0.0 ('To Drown In You') 64bit 2017-05-14 01:52:07 / mkvmerge v10.0.0 ('To Drown In You') 64bit 2017-05-14 01:52:07 / UTC 2017-05-13T23:53:59Z
    FromStats_BitRate           : 4385
    FromStats_Duration          : 01:22:52.556000000
    FromStats_FrameCount        : 1540
    FromStats_StreamSize        : 2725859

    Text #2
    ID                          : 5
    Format                      : PGS
    Muxing mode                 : zlib
    Codec ID                    : S_HDMV/PGS
    Codec ID/Info               : Picture based subtitle format used on BDs/HD-DVDs
    Language                    : English
    Default                     : No
    Forced                      : No
    Statistics Tags Issue       : mkvmerge v10.0.0 ('To Drown In You') 64bit 2017-05-14 01:52:07 / mkvmerge v10.0.0 ('To Drown In You') 64bit 2017-05-14 01:52:07 / UTC 2017-05-13T23:53:59Z
    FromStats_BitRate           : 5552
    FromStats_Duration          : 01:23:36.136000000
    FromStats_FrameCount        : 2426
    FromStats_StreamSize        : 3481787

    Text #3
    ID                          : 6
    Format                      : UTF-8
    Codec ID                    : S_TEXT/UTF8
    Codec ID/Info               : UTF-8 Plain Text
    Language                    : Spanish
    Default                     : No
    Forced                      : No
    Statistics Tags Issue       : mkvmerge v10.0.0 ('To Drown In You') 64bit 2017-05-14 01:52:07 / mkvmerge v10.0.0 ('To Drown In You') 64bit 2017-05-14 01:52:07 / UTC 2017-05-13T23:53:59Z
    FromStats_BitRate           : 40
    FromStats_Duration          : 01:22:52.593000000
    FromStats_FrameCount        : 770
    FromStats_StreamSize        : 24953

    Text #4
    ID                          : 7
    Format                      : UTF-8
    Codec ID                    : S_TEXT/UTF8
    Codec ID/Info               : UTF-8 Plain Text
    Language                    : English
    Default                     : No
    Forced                      : No
    Statistics Tags Issue       : mkvmerge v10.0.0 ('To Drown In You') 64bit 2017-05-14 01:52:07 / mkvmerge v10.0.0 ('To Drown In You') 64bit 2017-05-14 01:52:07 / UTC 2017-05-13T23:53:59Z
    FromStats_BitRate           : 44
    FromStats_Duration          : 01:22:52.620000000
    FromStats_FrameCount        : 806
    FromStats_StreamSize        : 27802

    Text #5
    ID                          : 8
    Format                      : UTF-8
    Codec ID                    : S_TEXT/UTF8
    Codec ID/Info               : UTF-8 Plain Text
    Language                    : Spanish
    Default                     : Yes
    Forced                      : No
    Statistics Tags Issue       : mkvmerge v10.0.0 ('To Drown In You') 64bit 2017-05-14 01:52:07 / mkvmerge v10.0.0 ('To Drown In You') 64bit 2017-05-14 01:52:07 / UTC 2017-05-13T23:53:59Z
    FromStats_BitRate           : 91
    FromStats_Duration          : 00:00:10.100000000
    FromStats_FrameCount        : 1
    FromStats_StreamSize        : 115

    Menu
    00:00:00.000                : :Chapter 1
    00:09:11.259                : :Chapter 2
    00:20:44.243                : :Chapter 3
    00:30:51.433                : :Chapter 4
    00:35:09.691                : :Chapter 5
    00:45:47.578                : :Chapter 6
    00:51:04.687                : :Chapter 7
    00:58:05.315                : :Chapter 8
    01:04:10.805                : :Chapter 9
    01:08:56.924                : :Chapter 10
    01:15:52.214                : :Chapter 11
    01:23:59.701                : :Chapter 12
    01:30:14.576                : :Chapter 13

  • Peso: 2.60 GB

Sinopsis

Una universitaria de juerga por Nueva York, en busca de droga y emociones fuertes, encuentra algo auténtico a lo que aferrarse y que podría perder más pronto que tarde.

Ficha técnica

  • Titulo original: White Girl
  • Fecha de lanzamiento: 02-09-2016 (United States of America)
  • Director: Elizabeth Wood, Sasha Vitelli
  • Género: Drama
  • Puntuación: 5.0 1 votos
  • Duración:
    1h 28m

Video trailer de la película

Enlaces de descarga

Descargar White Girl (2016) 1080p Latino
Descargar

dpeliculas

Aportes de DPeliculasHDmega la pass es:dpeliculashdmega.org Aportes de CinemaniaHD la pass es:cinemaniahdd.com
Guardado en : Drama

Películas relacionadas

  • Your name (2016) Full 1080p Latino

    2016
    Your name (2016) Full 1080p Latino

    5.0 1 h 46 min 2016

    La película nos presenta a dos jóvenes, Mitsuha y Taki. La primera es una estudiante de instituto que...

    Director: Makoto Shinkai

    Género: Animación

    Actores: Tani Kanon

  • Atrápame si puedes (2002) Full 1080p Latino

    2002
    Atrápame si puedes (2002) Full 1080p Latino

    0.0 2h 20m 2002

    Frank Abagnale Jr. trabajó como médico, abogado y copiloto de una de las grandes líneas aéreas, todo...

    Director: Steven Spielberg

    Género: Crimen

    Actores: William Lauzon

  • Mi Nueva Yo (2017) WEBDL 1080p Latino

    2017
    Mi Nueva Yo (2017) WEBDL 1080p Latino

    0.0 1 h 37 min 2017

    Una madre de dos hijos se acaba de separar y decide iniciar una nueva vida en Los Ángeles. Los acontecimientos...

    Director: Hallie Meyers-Shyer

    Género: Comedia

    Actores: Reid Scott

  • The Walking Dead (2017) Temporada 8 WEBDL 1080p Latino

    2017
    The Walking Dead (2017) Temporada 8 WEBDL 1080p Latino

    5.0 0h 42m 2017

    Rick, Maggie y Ezekiel reúnen a sus comunidades para derrotar a Negan y los salvadores. Gregory intenta...

    Director: Frank Darabont

    Género: Action & Adventure

    Actores: Norman Reedus

Comentarios 0