Weaponized (2016) 1080p Latino

1.392 vistas
1 estrella2 estrellas3 estrellas4 estrellas5 estrellas (Ninguna valoración todavía)
Cargando…

Información de Weaponized (2016) 1080p Latino

Datos de la película

  • Calidad: 1080p
  • Audio: Español Latino AC3 2.0 Capturado - Ingles AC3 5.1 BLURAY
  • Subtitulos: No
  • Resolución: 1920x816p
  • Formato:
  • Codec: H.264
  • Encoder: Dpelis
  • Mediainfo: Ver Ver
  • Swap.2016.bluray.1080p.Latino.mkv
    Format                      : Matroska
    Format version              : Version 4 / Version 2
    File size                   : 2.57 GiB
    Duration                    : 1 h 30 min
    Overall bit rate            : 4 051 kb/s
    Encoded date                : UTC 2017-06-29 20:01:51 / UTC 2017-06-28T15:23:37Z
    Writing application         : mkvmerge v10.0.0 ('To Drown In You') 64bit
    Writing library             : libebml v1.3.4 + libmatroska v1.4.5 / Lavf57.7.2

    Video
    ID                          : 1
    Format                      : AVC
    Format/Info                 : Advanced Video Codec
    Format profile              : [email protected]
    Format settings, CABAC      : Yes
    Format settings, ReFrames   : 4 frames
    Codec ID                    : V_MPEG4/ISO/AVC
    Duration                    : 1 h 30 min
    Bit rate                    : 3 330 kb/s
    Nominal bit rate            : 3 500 kb/s
    Width                       : 1 920 pixels
    Height                      : 816 pixels
    Display aspect ratio        : 2.35:1
    Frame rate mode             : Constant
    Frame rate                  : 23.976 (24000/1001) FPS
    Color space                 : YUV
    Chroma subsampling          : 4:2:0
    Bit depth                   : 8 bits
    Scan type                   : Progressive
    Bits/(Pixel*Frame)          : 0.089
    Stream size                 : 2.12 GiB (82%)
    Writing library             : x264 core 148 r2708 86b7198
    Encoding settings           : cabac=1 / ref=3 / deblock=1:0:0 / analyse=0x3:0x113 / me=hex / subme=7 / psy=1 / psy_rd=1.00:0.00 / mixed_ref=1 / me_range=16 / chroma_me=1 / trellis=1 / 8x8dct=1 / cqm=0 / deadzone=21,11 / fast_pskip=1 / chroma_qp_offset=-2 / threads=25 / lookahead_threads=4 / sliced_threads=0 / nr=0 / decimate=1 / interlaced=0 / bluray_compat=0 / constrained_intra=0 / bframes=3 / b_pyramid=2 / b_adapt=1 / b_bias=0 / direct=1 / weightb=1 / open_gop=0 / weightp=2 / keyint=240 / keyint_min=24 / scenecut=40 / intra_refresh=0 / rc_lookahead=40 / rc=abr / mbtree=1 / bitrate=3500 / ratetol=1.0 / qcomp=0.60 / qpmin=0 / qpmax=69 / qpstep=4 / vbv_maxrate=62500 / vbv_bufsize=78125 / nal_hrd=none / filler=0 / ip_ratio=1.40 / aq=1:1.00
    Default                     : Yes
    Forced                      : No
    Color range                 : Limited
    Color primaries             : BT.709
    Transfer characteristics    : BT.709
    Matrix coefficients         : BT.709
    Statistics Tags Issue       : mkvmerge v10.0.0 ('To Drown In You') 64bit 2017-06-29 20:01:51 / mkvmerge v10.0.0 ('To Drown In You') 64bit 2017-06-29 20:01:51 / UTC 2017-06-28T15:23:37Z
    FromStats_BitRate           : 3416861
    FromStats_Duration          : 01:30:58.662000000
    FromStats_FrameCount        : 130877
    FromStats_StreamSize        : 2331436829

    Audio #1
    ID                          : 2
    Format                      : AC-3
    Format/Info                 : Audio Coding 3
    Format settings, Endianness : Big
    Codec ID                    : A_AC3
    Duration                    : 1 h 30 min
    Bit rate mode               : Constant
    Bit rate                    : 256 kb/s
    Channel(s)                  : 2 channels
    Channel positions           : Front: L R
    Sampling rate               : 48.0 kHz
    Frame rate                  : 31.250 FPS (1536 spf)
    Bit depth                   : 16 bits
    Compression mode            : Lossy
    Delay relative to video     : 7 ms
    Stream size                 : 167 MiB (6%)
    Language                    : Spanish
    Service kind                : Complete Main
    Default                     : Yes
    Forced                      : No
    Statistics Tags Issue       : mkvmerge v10.0.0 ('To Drown In You') 64bit 2017-06-29 20:01:51 / mkvmerge v10.0.0 ('To Drown In You') 64bit 2017-06-29 20:01:51 / UTC 2017-06-28T15:23:37Z
    FromStats_BitRate           : 256000
    FromStats_Duration          : 01:27:57.664000000
    FromStats_FrameCount        : 164927
    FromStats_StreamSize        : 168885248

    Audio #2
    ID                          : 3
    Format                      : AC-3
    Format/Info                 : Audio Coding 3
    Format settings, Endianness : Big
    Codec ID                    : A_AC3
    Duration                    : 1 h 30 min
    Bit rate mode               : Constant
    Bit rate                    : 384 kb/s
    Channel(s)                  : 6 channels
    Channel positions           : Front: L C R, Side: L R, LFE
    Sampling rate               : 48.0 kHz
    Frame rate                  : 31.250 FPS (1536 spf)
    Bit depth                   : 16 bits
    Compression mode            : Lossy
    Delay relative to video     : -5 ms
    Stream size                 : 250 MiB (9%)
    Title                       : Surround
    Language                    : English
    Service kind                : Complete Main
    Default                     : No
    Forced                      : No
    Statistics Tags Issue       : mkvmerge v10.0.0 ('To Drown In You') 64bit 2017-06-29 20:01:51 / mkvmerge v10.0.0 ('To Drown In You') 64bit 2017-06-29 20:01:51 / UTC 2017-06-28T15:23:37Z
    FromStats_BitRate           : 384000
    FromStats_Duration          : 01:30:58.656000000
    FromStats_FrameCount        : 170583
    FromStats_StreamSize        : 262015488

    Text
    ID                          : 4
    Format                      : UTF-8
    Codec ID                    : S_TEXT/UTF8
    Codec ID/Info               : UTF-8 Plain Text
    Language                    : English
    Default                     : Yes
    Forced                      : No
    Statistics Tags Issue       : mkvmerge v10.0.0 ('To Drown In You') 64bit 2017-06-29 20:01:51 / mkvmerge v10.0.0 ('To Drown In You') 64bit 2017-06-29 20:01:51 / UTC 2017-06-28T15:23:37Z
    FromStats_BitRate           : 51
    FromStats_Duration          : 01:26:12.168000000
    FromStats_FrameCount        : 1272
    FromStats_StreamSize        : 33540

  • Peso: 2.257 GB

Sinopsis

De los escritores David Guggenheim y Nicholas Mennuti, responsables de ‘Safe House’, llega este thiller de acción y ritmo trepidante.
El protagonista de la historia es Kyle West, un hombre perseguido por su ex jefe tras haberle traicionado, un importante millonario con contactos llamado Christopher Chandler. Oculto en lo más profundo de Camboya, donde poco a poco comienza a poner en orden su vida y el miedo a perderlo todo de nuevo se apodera de él. Con la mirada siempre puesta en su espalda, se adentrará en un laberinto de persecuciones cuando unos oligarcas rusos le encuentren. Tras su pista se encuentran también unos operarios chinos, la CIA y una bella mercenaria que no dudará ni un segundo en acabar con su vida. Una carrera contrarreloj para descubrir qué ha ocurrido con el terrible hombre que le ha robado su vida y su identidad.

Ficha técnica

Imágenes, Capturas de la película

Video trailer de la película

Enlaces de descarga

Descargar Weaponized (2016) 1080p Latino
Descargar

dpeliculas

Aportes de DPeliculasHDmega la pass es:dpeliculashdmega.org Aportes de CinemaniaHD la pass es:cinemaniahdd.com
Guardado en : Acción , Ciencia ficción , Suspense

PelícuDelas relacionadas

  • Operation Mekong (2016) 1080p Latino

    2016
    Operation Mekong (2016) 1080p Latino

    5.0 2h 4m 2016

    A lo largo del río Mekong se encuentra el llamado triángulo dorado, uno de los mayores proveedores...

    Director: Dante Lam

    Género: Acción

    Actores: Zhao Jian

  • Collide (2016) 1080p Latino

    2016
    Collide (2016) 1080p Latino

    0.0 1h 39m 2016

    Descargar Persecucion al limite hd latino. Tambien conocida como Collide 1080p Cuando uno de los atracos...

    Director: Eran Creevy

    Género: Acción

    Actores: Nicholas Hoult

  • Gold la gran estafa (2016) 1080p Latino

    2016
    Gold la gran estafa (2016) 1080p Latino

    0.0 2h 1m 2016

    Descarga Gold hd latino, también conocida La gran estafa 1080p latino Kenny Wells es un fracasado hombre...

    Director: Stephen Gaghan

    Género: Aventura

    Actores: Yothin Mapobphun

Comentarios 2
  • Chipote - 16 Julio, 2017

    Hola, alguien tendrá los subtitulos ?, gracias !!

    • dpelis

      Administrador
      - 17 Julio, 2017

      no hay