Voltron El defensor legendario (2017) Temporada 3 WEBDL 1080p Latino

588 vistas
1 estrella2 estrellas3 estrellas4 estrellas5 estrellas (Ninguna valoración todavía)
Cargando…

Información de Voltron El defensor legendario (2017) Temporada 3 WEBDL 1080p Latino

Datos de la película

  • Calidad: WEBDL
  • Audio: Español Latino AC3 5.1 Netflix - Ingles AC3 5.1 Netflix
  • Subtitulos: Español PGS - Ingles PGS
  • Resolución: 1920x1080p
  • Formato: MKV
  • Codec: H.264
  • Encoder: Dpelis
  • Mediainfo: Ver Ver
  • Voltron Legendary Defender S03E01 WEBDL 1080p Latino.mkv
    Format                      : Matroska
    Format version              : Version 4 / Version 2
    File size                   : 667 MiB
    Duration                    : 23 min 40 s
    Overall bit rate            : 3 943 kb/s
    Movie name                  : DPeliculasHDMega.ORG
    Encoded date                : UTC 2017-09-03 19:14:08 / UTC 2017-09-03T05:58:38Z
    Writing application         : mkvmerge v10.0.0 ('To Drown In You') 64bit
    Writing library             : libebml v1.3.4 + libmatroska v1.4.5 / Lavf57.7.2

    Video
    ID                          : 1
    Format                      : AVC
    Format/Info                 : Advanced Video Codec
    Format profile              : [email protected]
    Format settings, CABAC      : Yes
    Format settings, ReFrames   : 4 frames
    Codec ID                    : V_MPEG4/ISO/AVC
    Duration                    : 23 min 40 s
    Bit rate                    : 3 288 kb/s
    Nominal bit rate            : 3 500 kb/s
    Width                       : 1 920 pixels
    Height                      : 1 080 pixels
    Display aspect ratio        : 16:9
    Frame rate mode             : Constant
    Frame rate                  : 23.976 (24000/1001) FPS
    Color space                 : YUV
    Chroma subsampling          : 4:2:0
    Bit depth                   : 8 bits
    Scan type                   : Progressive
    Bits/(Pixel*Frame)          : 0.066
    Stream size                 : 557 MiB (83%)
    Writing library             : x264 core 148 r2708 86b7198
    Encoding settings           : cabac=1 / ref=3 / deblock=1:0:0 / analyse=0x3:0x113 / me=hex / subme=7 / psy=1 / psy_rd=1.00:0.00 / mixed_ref=1 / me_range=16 / chroma_me=1 / trellis=1 / 8x8dct=1 / cqm=0 / deadzone=21,11 / fast_pskip=1 / chroma_qp_offset=-2 / threads=12 / lookahead_threads=2 / sliced_threads=0 / nr=0 / decimate=1 / interlaced=0 / bluray_compat=0 / constrained_intra=0 / bframes=3 / b_pyramid=2 / b_adapt=1 / b_bias=0 / direct=1 / weightb=1 / open_gop=0 / weightp=2 / keyint=240 / keyint_min=24 / scenecut=40 / intra_refresh=0 / rc_lookahead=40 / rc=abr / mbtree=1 / bitrate=3500 / ratetol=1.0 / qcomp=0.60 / qpmin=0 / qpmax=69 / qpstep=4 / vbv_maxrate=62500 / vbv_bufsize=78125 / nal_hrd=none / filler=0 / ip_ratio=1.40 / aq=1:1.00
    Default                     : Yes
    Forced                      : No
    Color range                 : Limited
    Color primaries             : BT.709
    Transfer characteristics    : BT.709
    Matrix coefficients         : BT.709
    Statistics Tags Issue       : mkvmerge v10.0.0 ('To Drown In You') 64bit 2017-09-03 19:14:08 / mkvmerge v10.0.0 ('To Drown In You') 64bit 2017-09-03 19:14:08 / UTC 2017-09-03T05:58:38Z
    FromStats_BitRate           : 3365018
    FromStats_Duration          : 00:23:39.835000000
    FromStats_FrameCount        : 34042
    FromStats_StreamSize        : 597221298

    Audio #1
    ID                          : 2
    Format                      : E-AC-3
    Format/Info                 : Enhanced Audio Coding 3
    Format settings, Endianness : Big
    Codec ID                    : A_EAC3
    Duration                    : 23 min 40 s
    Bit rate mode               : Constant
    Bit rate                    : 192 kb/s
    Channel(s)                  : 6 channels
    Channel positions           : Front: L C R, Side: L R, LFE
    Sampling rate               : 48.0 kHz
    Frame rate                  : 187.500 FPS (256 spf)
    Compression mode            : Lossy
    Stream size                 : 32.5 MiB (5%)
    Language                    : Spanish
    Service kind                : Complete Main
    Default                     : Yes
    Forced                      : No
    Statistics Tags Issue       : mkvmerge v10.0.0 ('To Drown In You') 64bit 2017-09-03 19:14:08 / mkvmerge v10.0.0 ('To Drown In You') 64bit 2017-09-03 19:14:08 / UTC 2017-09-03T05:58:38Z
    FromStats_BitRate           : 192000
    FromStats_Duration          : 00:23:40.064000000
    FromStats_FrameCount        : 44377
    FromStats_StreamSize        : 34081536

    Audio #2
    ID                          : 3
    Format                      : AC-3
    Format/Info                 : Audio Coding 3
    Format settings, Endianness : Big
    Codec ID                    : A_AC3
    Duration                    : 23 min 40 s
    Bit rate mode               : Constant
    Bit rate                    : 384 kb/s
    Channel(s)                  : 6 channels
    Channel positions           : Front: L C R, Side: L R, LFE
    Sampling rate               : 48.0 kHz
    Frame rate                  : 31.250 FPS (1536 spf)
    Bit depth                   : 16 bits
    Compression mode            : Lossy
    Stream size                 : 65.0 MiB (10%)
    Title                       : Surround
    Language                    : English
    Service kind                : Complete Main
    Default                     : No
    Forced                      : No
    Statistics Tags Issue       : mkvmerge v10.0.0 ('To Drown In You') 64bit 2017-09-03 19:14:08 / mkvmerge v10.0.0 ('To Drown In You') 64bit 2017-09-03 19:14:08 / UTC 2017-09-03T05:58:38Z
    FromStats_BitRate           : 384000
    FromStats_Duration          : 00:23:40.064000000
    FromStats_FrameCount        : 44377
    FromStats_StreamSize        : 68163072

    Text #1
    ID                          : 4
    Format                      : ASS
    Codec ID                    : S_TEXT/ASS
    Codec ID/Info               : Advanced Sub Station Alpha
    Compression mode            : Lossless
    Language                    : Spanish
    Default                     : No
    Forced                      : No
    Statistics Tags Issue       : mkvmerge v10.0.0 ('To Drown In You') 64bit 2017-09-03 19:14:08 / mkvmerge v10.0.0 ('To Drown In You') 64bit 2017-09-03 19:14:08 / UTC 2017-09-03T05:58:38Z
    FromStats_BitRate           : 76
    FromStats_Duration          : 00:23:04.089000000
    FromStats_FrameCount        : 216
    FromStats_StreamSize        : 13161

    Text #2
    ID                          : 5
    Format                      : ASS
    Codec ID                    : S_TEXT/ASS
    Codec ID/Info               : Advanced Sub Station Alpha
    Compression mode            : Lossless
    Language                    : English
    Default                     : No
    Forced                      : No
    Statistics Tags Issue       : mkvmerge v10.0.0 ('To Drown In You') 64bit 2017-09-03 19:14:08 / mkvmerge v10.0.0 ('To Drown In You') 64bit 2017-09-03 19:14:08 / UTC 2017-09-03T05:58:38Z
    FromStats_BitRate           : 114
    FromStats_Duration          : 00:21:35.128000000
    FromStats_FrameCount        : 301
    FromStats_StreamSize        : 18536

  • Peso: 660 MB C/U

Sinopsis

La temporada 3 se abre con el equipo Voltron enfrentando un futuro sombrío e incierto a pesar de su victoria duramente ganada sobre el Emperador Zarkon (Neil Kaplan) al final de la segunda temporada. El Imperio Galra puede estar tambaleándose y nuevos mundos pueden estar aumentando en resistencia, pero con Shiro (Josh Keaton) ahora MIA, los Paladines se encuentran sin un líder y sin forma de volver a formar Voltron. La nueva temporada establece dos conflictos paralelos de inmediato, ya que la Princesa Allura (Kimberly Brooks) lidera a los Paladines en una búsqueda para encontrar un nuevo piloto para el León Negro mientras un nuevo enemigo surge para unir a la Galra dividida en forma de hijo de Zarkon, Príncipe Lotor (AJ Locascio).

Ficha técnica

  • Titulo original: Voltron: Legendary Defender
  • Fecha de lanzamiento: 04-08-2017 (United States of America)
  • Género: Acción, Animación, Series
  • Puntuación: 0.0 0 votos
  • Duración:
    0h 23m

Imágenes, Capturas de la película

Video trailer de la película

Enlaces de descarga

Descargar Voltron El defensor legendario (2017) Temporada 3 WEBDL 1080p Latino
Descargar

dpeliculas

Aportes de DPeliculasHDmega la pass es:dpeliculashdmega.org Aportes de CinemaniaHD la pass es:cinemaniahdd.com
Guardado en : Acción , Animación , Series

PelícuDelas relacionadas

Comentarios 2
  • Alexis - 05 septiembre, 2017

    Amigos qué series y sagas se vienen ? :3

    • dpelis

      Administrador
      - 05 septiembre, 2017

      las ultimas de agente shiedl. prison break. sagas no sabemos