Vivir De Noche (2016) FULL 1080p x265 Latino

568 vistas
1 estrella2 estrellas3 estrellas4 estrellas5 estrellas (Ninguna valoración todavía)
Cargando…

Información de Vivir De Noche (2016) FULL 1080p x265 Latino

Datos de la película

  • Calidad: Full 1080p
  • Audio: Español Latino AC3 5.1 BLURAY - Ingles DTS 5.1 BLURAY
  • Subtitulos: Español Latino SRT
  • Resolución: 1920x1080p
  • Formato: MKV
  • Codec: H.265
  • Encoder: SebastianHDx
  • Mediainfo: Ver Ver
  • Vivir De Noche (2016) 1080p BluRay x265 HEVC DTS Dual Latino.mkv
    Format                      : Matroska
    Format version              : Version 4 / Version 2
    File size                   : 3.05 GiB
    Duration                    : 2 h 8 min
    Overall bit rate            : 3 384 kb/s
    Encoded date                : UTC 2017-04-21 01:46:18
    Writing application         : mkvmerge v9.9.0 ('Pick Up') 64bit
    Writing library             : libebml v1.3.4 + libmatroska v1.4.5

    Video
    ID                          : 1
    Format                      : HEVC
    Format/Info                 : High Efficiency Video Coding
    Format profile              : [email protected]@Main
    Codec ID                    : V_MPEGH/ISO/HEVC
    Duration                    : 2 h 8 min
    Bit rate                    : 1 390 kb/s
    Width                       : 1 920 pixels
    Height                      : 1 080 pixels
    Display aspect ratio        : 16:9
    Frame rate mode             : Constant
    Frame rate                  : 23.976 (24000/1001) FPS
    Color space                 : YUV
    Chroma subsampling          : 4:2:0
    Bit depth                   : 8 bits
    Bits/(Pixel*Frame)          : 0.028
    Stream size                 : 1.25 GiB (41%)
    Writing library             : x265 2.1:[Windows][GCC 5.3.1][64 bit] 8bit
    Encoding settings           : wpp / ctu=64 / min-cu-size=8 / max-tu-size=32 / tu-intra-depth=1 / tu-inter-depth=1 / me=3 / subme=3 / merange=57 / rect / no-amp / max-merge=3 / temporal-mvp / no-early-skip / rskip / rdpenalty=0 / no-tskip / no-tskip-fast / strong-intra-smoothing / no-lossless / no-cu-lossless / no-constrained-intra / no-fast-intra / open-gop / no-temporal-layers / interlace=0 / keyint=240 / min-keyint=24 / scenecut=40 / rc-lookahead=25 / lookahead-slices=4 / bframes=4 / bframe-bias=0 / b-adapt=2 / ref=4 / limit-refs=3 / limit-modes / weightp / no-weightb / aq-mode=1 / qg-size=32 / aq-strength=1.00 / cbqpoffs=0 / crqpoffs=0 / rd=4 / psy-rd=2.00 / rdoq-level=2 / psy-rdoq=1.00 / log2-max-poc-lsb=8 / no-rd-refine / signhide / deblock=0:0 / sao / no-sao-non-deblock / b-pyramid / cutree / no-intra-refresh / rc=crf / crf=20.0 / qcomp=0.60 / qpmin=0 / qpmax=69 / qpstep=4 / ipratio=1.40 / pbratio=1.30
    Default                     : Yes
    Forced                      : No
    Color range                 : Limited
    Color primaries             : BT.709
    Transfer characteristics    : BT.709
    Matrix coefficients         : BT.709

    Audio #1
    ID                          : 2
    Format                      : AC-3
    Format/Info                 : Audio Coding 3
    Format settings, Endianness : Big
    Codec ID                    : A_AC3
    Duration                    : 2 h 8 min
    Bit rate mode               : Constant
    Bit rate                    : 448 kb/s
    Channel(s)                  : 6 channels
    Channel positions           : Front: L C R, Side: L R, LFE
    Sampling rate               : 48.0 kHz
    Frame rate                  : 31.250 FPS (1536 spf)
    Bit depth                   : 16 bits
    Compression mode            : Lossy
    Stream size                 : 413 MiB (13%)
    Title                       : Español Latino AC3 5.1 [448 Kbps]
    Language                    : Spanish
    Service kind                : Complete Main
    Default                     : Yes
    Forced                      : No

    Audio #2
    ID                          : 3
    Format                      : DTS
    Format/Info                 : Digital Theater Systems
    Mode                        : 16
    Format settings, Endianness : Big
    Codec ID                    : A_DTS
    Duration                    : 2 h 8 min
    Bit rate mode               : Constant
    Bit rate                    : 1 509 kb/s
    Channel(s)                  : 6 channels
    Channel positions           : Front: L C R, Side: L R, LFE
    Sampling rate               : 48.0 kHz
    Frame rate                  : 93.750 FPS (512 spf)
    Bit depth                   : 16 bits
    Compression mode            : Lossy
    Stream size                 : 1.36 GiB (45%)
    Title                       : Inglés DTS 5.1 [1509 Kbps]
    Language                    : English
    Default                     : No
    Forced                      : No

    Text #1
    ID                          : 4
    Format                      : UTF-8
    Codec ID                    : S_TEXT/UTF8
    Codec ID/Info               : UTF-8 Plain Text
    Duration                    : 1 h 48 min
    Bit rate                    : 0 b/s
    Count of elements           : 10
    Stream size                 : 205 Bytes (0%)
    Title                       : Subtítulos Español Latino - Forzados [SRT]
    Language                    : Spanish
    Default                     : No
    Forced                      : Yes

    Text #2
    ID                          : 5
    Format                      : UTF-8
    Codec ID                    : S_TEXT/UTF8
    Codec ID/Info               : UTF-8 Plain Text
    Duration                    : 2 h 7 min
    Bit rate                    : 57 b/s
    Count of elements           : 1704
    Stream size                 : 53.7 KiB (0%)
    Title                       : Subtítulos Español Latino [SRT]
    Language                    : Spanish
    Default                     : No
    Forced                      : No

    Text #3
    ID                          : 6
    Format                      : PGS
    Codec ID                    : S_HDMV/PGS
    Codec ID/Info               : Picture based subtitle format used on BDs/HD-DVDs
    Duration                    : 1 h 57 min
    Bit rate                    : 184 b/s
    Count of elements           : 22
    Stream size                 : 159 KiB (0%)
    Title                       : Subtítulos Español Latino - Forzados [PGS]
    Language                    : Spanish
    Default                     : No
    Forced                      : No

    Text #4
    ID                          : 7
    Format                      : PGS
    Codec ID                    : S_HDMV/PGS
    Codec ID/Info               : Picture based subtitle format used on BDs/HD-DVDs
    Duration                    : 2 h 8 min
    Bit rate                    : 35.0 kb/s
    Count of elements           : 3410
    Stream size                 : 32.0 MiB (1%)
    Title                       : Subtítulos Español Latino [PGS]
    Language                    : Spanish
    Default                     : No
    Forced                      : No

    Menu
    00:00:00.000                : :Chapter 1
    00:11:12.797                : :Chapter 2
    00:20:26.267                : :Chapter 3
    00:33:14.659                : :Chapter 4
    00:43:34.070                : :Chapter 5
    00:52:53.087                : :Chapter 6
    01:02:26.534                : :Chapter 7
    01:12:47.530                : :Chapter 8
    01:24:12.714                : :Chapter 9
    01:34:19.863                : :Chapter 10
    01:38:15.723                : :Chapter 11
    01:48:57.948                : :Chapter 12
    01:53:29.970                : :Chapter 13
    02:01:57.143                : :Chapter 14

  • Peso: 3.05 GB

Sinopsis

Boston. Década de los años 20. En plena era de la Prohibición, Joe Coughlin (Ben Affleck) es hijo de un eminente capitán de la policía de la ciudad. Pero, Coughin no sigue precisamente los pasos de su padre, y se une al crimen organizado, para convertirse en un contrabandista que trafica con alcohol. Poco a poco, su ascendente carrera en el mundo de la mafia le llevará a convertirse en un importante gangster de la Costa del Golfo. En su camino se cruzará una mujer, Graciella Suarez (Zoe Saldana), que cambiará para siempre su vida. Pero todo peligrará cuando la ambición Coughlin haga correr un gran riesgo a su familia y a su propia reputación. Porque… ¿Puede un hombre ser al mismo tiempo un criminal y una buena persona? Basada en la novela Live By Night

Ficha técnica

  • Titulo original: Live by Night
  • Fecha de lanzamiento: 25-12-2016 (United States of America)
  • Director: Ben Affleck
  • Género: 1080p x265 HEVC, Crimen, Drama
  • Puntuación: 0.0 0 votos
  • Duración:
    2h 8m

Imágenes, Capturas de la película

Video trailer de la película

Enlaces de descarga

Descargar
Descargar Vivir De Noche (2016) FULL 1080p x265 Latino

dpeliculas

Aportes de DPeliculasHDmega la pass es:dpeliculashdmega.org Aportes de CinemaniaHD la pass es:cinemaniahdd.com
Guardado en : 1080p x265 HEVC , Crimen , Drama

PelícuDelas relacionadas

  • Poesía sin fin (2016) Full Latino

    2016
    Poesía sin fin (2016) Full Latino

    0.0 0h 0m 2016

    Descargar gratis Poesía sin fin (2016) Full Latino. A traves de la lente autobiográfica de Alejandro...

    Director: Alejandro Jodorowsky

    Género: Drama

    Actores: Pamela Flores

  • El fugitivo (1993) Full 1080p Latino

    1993
    El fugitivo (1993) Full 1080p Latino

    5.0 2h 13m 1993

    El doctor Richard Kimble es un prestigioso cirujano de Chicago con una vida prácticamente perfecta:...

    Director: Andrew Davis

    Género: Acción

    Actores: Turk Muller

  • El último virrey de la India (2017) 1080p Latino

    2017
    El último virrey de la India (2017) 1080p Latino

    0.0 1h 47m 2017

    En 1947, Lord Mountbatten (Hugh Bonneville), el bisnieto de la reina Victoria, asume su posición como...

    Director: San Davey

    Género: Drama

    Actores: Trishaan

Comentarios 3
  • Jose - 24 abril, 2017

    Hola disculpen este rip en 265 es de 10bits o 8bits. Gracias

    • dpelis

      Administrador
      - 24 abril, 2017

      8 bits.