Advertise here

Vive por mí (2016) 1080p Latino

960 vistas
1 estrella2 estrellas3 estrellas4 estrellas5 estrellas (1 votos, promedio: 5,00 de 5)
Cargando…

Información de Vive por mí (2016) 1080p Latino

Datos de la película

  • Calidad: 1080p
  • Audio: Español Latino AC3 5.1 BLURAY
  • Subtitulos: No
  • Resolución: 1920X856
  • Formato: MKV
  • Codec: H.264
  • Encoder: Dpelis
  • Mediainfo: Clic para Mostrar Datos Ver
  • Format                                   : Matroska
    Format version                           : Version 4 / Version 2
    File size                                : 2.80 GiB
    Duration                                 : 1 h 45 min
    Overall bit rate                         : 3 784 kb/s
    Movie name                               : dpeliculashdmega.org
    Encoded date                             : UTC 2017-11-09 03:31:47 / UTC 2017-11-09T01:54:06Z
    Writing application                      : mkvmerge v15.0.0 ('Duel with the Devil') 64-bit
    Writing library                          : libebml v1.3.5 + libmatroska v1.4.5 / Lavf57.7.2

    Video
    ID                                       : 1
    Format                                   : AVC
    Format/Info                              : Advanced Video Codec
    Format profile                           : [email protected]
    Format settings                          : CABAC / 5 Ref Frames
    Format settings, CABAC                   : Yes
    Format settings, RefFrames               : 5 frames
    Codec ID                                 : V_MPEG4/ISO/AVC
    Duration                                 : 1 h 45 min
    Bit rate                                 : 3 325 kb/s
    Nominal bit rate                         : 3 500 kb/s
    Width                                    : 1 920 pixels
    Height                                   : 856 pixels
    Display aspect ratio                     : 2.25:1
    Frame rate mode                          : Constant
    Frame rate                               : 23.976 (24000/1001) FPS
    Color space                              : YUV
    Chroma subsampling                       : 4:2:0
    Bit depth                                : 8 bits
    Scan type                                : Progressive
    Bits/(Pixel*Frame)                       : 0.084
    Stream size                              : 2.46 GiB (88%)
    Title                                    : Vive por mí (2016) 1080p Latino
    Writing library                          : x264 core 148 r2708 86b7198
    Encoding settings                        : cabac=1 / ref=5 / deblock=1:0:0 / analyse=0x3:0x113 / me=umh / subme=8 / psy=1 / psy_rd=1.00:0.00 / mixed_ref=1 / me_range=16 / chroma_me=1 / trellis=1 / 8x8dct=1 / cqm=0 / deadzone=21,11 / fast_pskip=1 / chroma_qp_offset=-2 / threads=27 / lookahead_threads=4 / sliced_threads=0 / nr=0 / decimate=1 / interlaced=0 / bluray_compat=0 / constrained_intra=0 / bframes=3 / b_pyramid=2 / b_adapt=2 / b_bias=0 / direct=3 / weightb=1 / open_gop=0 / weightp=2 / keyint=240 / keyint_min=24 / scenecut=40 / intra_refresh=0 / rc_lookahead=50 / rc=abr / mbtree=1 / bitrate=3500 / ratetol=1.0 / qcomp=0.60 / qpmin=0 / qpmax=69 / qpstep=4 / vbv_maxrate=62500 / vbv_bufsize=78125 / nal_hrd=none / filler=0 / ip_ratio=1.40 / aq=1:1.00
    Language                                 : Spanish
    Default                                  : Yes
    Forced                                   : No
    Color range                              : Limited
    Color primaries                          : BT.709
    Transfer characteristics                 : BT.709
    Matrix coefficients                      : BT.709
    Statistics Tags Issue                    : mkvmerge v15.0.0 ('Duel with the Devil') 64-bit 2017-11-09 03:31:47 / mkvmerge v15.0.0 ('Duel with the Devil') 64-bit 2017-11-09 03:31:47 / UTC 2017-11-09T01:54:06Z
    FromStats_BitRate                        : 3398696
    FromStats_Duration                       : 01:45:54.557000000
    FromStats_FrameCount                     : 152357
    FromStats_StreamSize                     : 2699651155

    Audio
    ID                                       : 2
    Format                                   : AC-3
    Format/Info                              : Audio Coding 3
    Format settings, Endianness              : Big
    Codec ID                                 : A_AC3
    Duration                                 : 1 h 45 min
    Bit rate mode                            : Constant
    Bit rate                                 : 384 kb/s
    Channel(s)                               : 6 channels
    Channel positions                        : Front: L C R, Side: L R, LFE
    Sampling rate                            : 48.0 kHz
    Frame rate                               : 31.250 FPS (1536 SPF)
    Bit depth                                : 16 bits
    Compression mode                         : Lossy
    Delay relative to video                  : 91 ms
    Stream size                              : 291 MiB (10%)
    Title                                    : Latino-AC3
    Language                                 : Spanish
    Service kind                             : Complete Main
    Default                                  : Yes
    Forced                                   : No
    Statistics Tags Issue                    : mkvmerge v15.0.0 ('Duel with the Devil') 64-bit 2017-11-09 03:31:47 / mkvmerge v15.0.0 ('Duel with the Devil') 64-bit 2017-11-09 03:31:47 / UTC 2017-11-09T01:54:06Z
    FromStats_BitRate                        : 384000
    FromStats_Duration                       : 01:45:54.432000000
    FromStats_FrameCount                     : 198576
    FromStats_StreamSize                     : 305012736

    Menu
    00:00:00.083                             : :Chapter 1
    00:07:56.059                             : :Chapter 2
    00:16:59.602                             : :Chapter 3
    00:26:01.643                             : :Chapter 4
    00:34:09.631                             : :Chapter 5
    00:43:13.174                             : :Chapter 6
    00:52:09.710                             : :Chapter 7
    01:00:33.213                             : :Chapter 8
    01:10:41.821                             : :Chapter 9
    01:20:16.895                             : :Chapter 10
    01:28:15.874                             : :Chapter 11
    01:36:53.391                             : :Chapter 12

  • Peso: 2.80 GiB

Sinopsis

Una noche, tras la notificación de un muerto por accidente de tráfico, tres personas reciben la misma llamada de emergencia: la oportunidad de obtener el ansiado trasplante de riñón que esperan. Este primer y fortuito encuentro será el inicio de los lazos que se crean entre los tres. Un mes es el tiempo que transcurre entre dos accidentes que marcan sus vidas y cruzan sus destinos, obligándoles a enfrentarse a la vida y a redimir cuentas con su pasado.

Ficha técnica

  • Titulo original: Vive por mí
  • Fecha de lanzamiento: 19-07-2017 (Mexico)
  • Director: Chema de la Peña
  • Género: Sin categoría
  • Puntuación: 5.0 1 votos
  • Duración:
    1 h 45 min

Video trailer de la película

Enlaces de descarga

Descargar Vive por mí (2016) 1080p Latino
Descargar

dpeliculas

Aportes de DPeliculasHDmega la pass es:dpeliculashdmega.org Aportes de CinemaniaHD la pass es:cinemaniahdd.com
Guardado en : Sin categoría

Películas relacionadas

  • The Good Catholic (2017) WEBDL 1080p Latino

    2017
    The Good Catholic (2017) WEBDL 1080p Latino

    2.0 1h 36m 2017

    Daniel amaba su trabajo como sacerdote de un pequeño pueblo más que nada. Entonces conoció a Jane....

    Director: Paul Shoulberg

    Género: Sin categoría

    Actores: Zachary Spicer

  • Juego de Tronos (2016) Temporada 6 Full Latino

    2011/03/17
    Juego de Tronos (2016) Temporada 6 Full Latino

    5.0 60 Min. 2011/03/17

    Descargar gratis Juego de Tronos (2016) Temporada 6 Full Latino Sinopsis capitulo 1: Jon Nieve está...

    Director: David Benioff

    Género: Drama

    Actores: Sophie Turner

  • Shimmer Lake (2017) WEBDL Latino

    2017
    Shimmer Lake (2017) WEBDL Latino

    0.0 1h 26m 2017

    Descargar Shimmer Lake 1080p Latino una pelicula de Netflix,Un robo fallido a un banco, secretos de pueblo...

    Director: Oren Uziel

    Género: Sin categoría

    Actores: Wyatt Russell

  • dolores argentina 1080p

    Dolores (2016) WEBDL Latino

    2016
    Dolores (2016) WEBDL Latino

    0.0 1h 39m 2016

    Descargar Peliculas Dolores WEBDL Latino, es una pelicula Argentina. Dolores cuenta la historia de una...

    Director: Juan Dickinson

    Género: Sin categoría

    Actores: Roberto Birindelli

Comentarios 2
  • pony1987LED - 09 noviembre, 2017

    amigo disculpa no cargan los enlaces de descarga en paste publico gracias

    • dpelis

      Administrador
      - 10 noviembre, 2017

      intente de nuevo