Viral (2016) 1080p Latino

1.037 vistas
1 estrella2 estrellas3 estrellas4 estrellas5 estrellas (2 votos, promedio: 4,50 de 5)
Cargando…

Información de Viral (2016) 1080p Latino

Datos de la película

  • Calidad: 1080p
  • Audio: Español Latino AC3 2.0 iTUNES - Ingles AC3 5.1 BLURAY
  • Subtitulos: Español Latino SRT - Ingles SRT
  • Resolución: 1920x804p
  • Formato: MKV
  • Codec: H.264
  • Encoder: Dpelis
  • Mediainfo: Ver Ver
  • Viral (2016) 1080p Latino.mkv
    Format                      : Matroska
    Format version              : Version 4 / Version 2
    File size                   : 2.38 GiB
    Duration                    : 1 h 25 min
    Overall bit rate            : 3 987 kb/s
    Encoded date                : UTC 2017-07-19 14:00:53 / UTC 2017-07-19T11:52:07Z
    Writing application         : mkvmerge v10.0.0 ('To Drown In You') 64bit
    Writing library             : libebml v1.3.4 + libmatroska v1.4.5 / Lavf57.7.2

    Video
    ID                          : 1
    Format                      : AVC
    Format/Info                 : Advanced Video Codec
    Format profile              : [email protected]
    Format settings, CABAC      : Yes
    Format settings, ReFrames   : 4 frames
    Codec ID                    : V_MPEG4/ISO/AVC
    Duration                    : 1 h 25 min
    Bit rate                    : 3 331 kb/s
    Nominal bit rate            : 3 500 kb/s
    Width                       : 1 920 pixels
    Height                      : 804 pixels
    Display aspect ratio        : 2.40:1
    Frame rate mode             : Constant
    Frame rate                  : 24.000 FPS
    Color space                 : YUV
    Chroma subsampling          : 4:2:0
    Bit depth                   : 8 bits
    Scan type                   : Progressive
    Bits/(Pixel*Frame)          : 0.090
    Stream size                 : 1.99 GiB (84%)
    Writing library             : x264 core 148 r2708 86b7198
    Encoding settings           : cabac=1 / ref=3 / deblock=1:0:0 / analyse=0x3:0x113 / me=hex / subme=7 / psy=1 / psy_rd=1.00:0.00 / mixed_ref=1 / me_range=16 / chroma_me=1 / trellis=1 / 8x8dct=1 / cqm=0 / deadzone=21,11 / fast_pskip=1 / chroma_qp_offset=-2 / threads=12 / lookahead_threads=2 / sliced_threads=0 / nr=0 / decimate=1 / interlaced=0 / bluray_compat=0 / constrained_intra=0 / bframes=3 / b_pyramid=2 / b_adapt=1 / b_bias=0 / direct=1 / weightb=1 / open_gop=0 / weightp=2 / keyint=240 / keyint_min=24 / scenecut=40 / intra_refresh=0 / rc_lookahead=40 / rc=abr / mbtree=1 / bitrate=3500 / ratetol=1.0 / qcomp=0.60 / qpmin=0 / qpmax=69 / qpstep=4 / vbv_maxrate=62500 / vbv_bufsize=78125 / nal_hrd=none / filler=0 / ip_ratio=1.40 / aq=1:1.00
    Default                     : Yes
    Forced                      : No
    Color range                 : Limited
    Color primaries             : BT.709
    Transfer characteristics    : BT.709
    Matrix coefficients         : BT.709
    Statistics Tags Issue       : mkvmerge v10.0.0 ('To Drown In You') 64bit 2017-07-19 14:00:53 / mkvmerge v10.0.0 ('To Drown In You') 64bit 2017-07-19 14:00:53 / UTC 2017-07-19T11:52:07Z
    FromStats_BitRate           : 3408712
    FromStats_Duration          : 01:25:35.417000000
    FromStats_FrameCount        : 123250
    FromStats_StreamSize        : 2188144970

    Audio #1
    ID                          : 2
    Format                      : AC-3
    Format/Info                 : Audio Coding 3
    Format settings, Endianness : Big
    Codec ID                    : A_AC3
    Duration                    : 1 h 25 min
    Bit rate mode               : Constant
    Bit rate                    : 192 kb/s
    Channel(s)                  : 2 channels
    Channel positions           : Front: L R
    Sampling rate               : 48.0 kHz
    Frame rate                  : 31.250 FPS (1536 spf)
    Bit depth                   : 16 bits
    Compression mode            : Lossy
    Delay relative to video     : -5 ms
    Stream size                 : 118 MiB (5%)
    Language                    : Spanish
    Service kind                : Complete Main
    Default                     : Yes
    Forced                      : No
    Statistics Tags Issue       : mkvmerge v10.0.0 ('To Drown In You') 64bit 2017-07-19 14:00:53 / mkvmerge v10.0.0 ('To Drown In You') 64bit 2017-07-19 14:00:53 / UTC 2017-07-19T11:52:07Z
    FromStats_BitRate           : 192000
    FromStats_Duration          : 01:25:35.936000000
    FromStats_FrameCount        : 160498
    FromStats_StreamSize        : 123262464

    Audio #2
    ID                          : 3
    Format                      : AC-3
    Format/Info                 : Audio Coding 3
    Format settings, Endianness : Big
    Codec ID                    : A_AC3
    Duration                    : 1 h 25 min
    Bit rate mode               : Constant
    Bit rate                    : 384 kb/s
    Channel(s)                  : 6 channels
    Channel positions           : Front: L C R, Side: L R, LFE
    Sampling rate               : 48.0 kHz
    Frame rate                  : 31.250 FPS (1536 spf)
    Bit depth                   : 16 bits
    Compression mode            : Lossy
    Delay relative to video     : -5 ms
    Stream size                 : 235 MiB (10%)
    Title                       : Surround
    Language                    : English
    Service kind                : Complete Main
    Default                     : No
    Forced                      : No
    Statistics Tags Issue       : mkvmerge v10.0.0 ('To Drown In You') 64bit 2017-07-19 14:00:53 / mkvmerge v10.0.0 ('To Drown In You') 64bit 2017-07-19 14:00:53 / UTC 2017-07-19T11:52:07Z
    FromStats_BitRate           : 384000
    FromStats_Duration          : 01:25:35.424000000
    FromStats_FrameCount        : 160482
    FromStats_StreamSize        : 246500352

    Text #1
    ID                          : 4
    Format                      : UTF-8
    Codec ID                    : S_TEXT/UTF8
    Codec ID/Info               : UTF-8 Plain Text
    Default                     : Yes
    Forced                      : No
    Statistics Tags Issue       : mkvmerge v10.0.0 ('To Drown In You') 64bit 2017-07-19 14:00:53 / mkvmerge v10.0.0 ('To Drown In You') 64bit 2017-07-19 14:00:53 / UTC 2017-07-19T11:52:07Z
    FromStats_BitRate           : 47
    FromStats_Duration          : 01:20:56.566000000
    FromStats_FrameCount        : 1001
    FromStats_StreamSize        : 28894

    Text #2
    ID                          : 5
    Format                      : UTF-8
    Codec ID                    : S_TEXT/UTF8
    Codec ID/Info               : UTF-8 Plain Text
    Default                     : No
    Forced                      : No
    Statistics Tags Issue       : mkvmerge v10.0.0 ('To Drown In You') 64bit 2017-07-19 14:00:53 / mkvmerge v10.0.0 ('To Drown In You') 64bit 2017-07-19 14:00:53 / UTC 2017-07-19T11:52:07Z
    FromStats_BitRate           : 41
    FromStats_Duration          : 01:20:56.858000000
    FromStats_FrameCount        : 719
    FromStats_StreamSize        : 25337

  • Peso: 2.38GB

Sinopsis

Stacey, una joven que vive en una urbanización de los suburbios con sus padres y su hermana Emma, verá cómo su vida cambia por completo cuando un virus letal comienza a extenderse por el vecindario en una ciudad que se declara en cuarente

Ficha técnica

Imágenes, Capturas de la película

Video trailer de la película

Enlaces de descarga

Descargar Viral (2016) 1080p Latino
Descargar

dpeliculas

Aportes de DPeliculasHDmega la pass es:dpeliculashdmega.org Aportes de CinemaniaHD la pass es:cinemaniahdd.com
Guardado en : Ciencia ficción , Drama , Terror

PelícuDelas relacionadas

  • Annabelle: Creation (2017) Full 1080p Latino

    2017
    Annabelle: Creation (2017) Full 1080p Latino

    4.5 1 h 49 min 2017

    Década de los 50. Algunos años después de que Samuel Mullins (Anthony LaPaglia), un fabricante de...

    Director: Jan McWilliams

    Género: Estrenos

    Actores: Ward Horton

  • Llega de noche (2017) Full 1080p Latino

    2017
    Llega de noche (2017) Full 1080p Latino

    1.0 1 h 31 min 2017

    Paul es un padre de familia (Joel Edgerton) que vive junto a su Sarah (Carmen Ejogo) y su hijo adolescente...

    Director: Trey Edward Shults

    Género: Misterio

    Actores: Riley Keough

  • Alien: Covenant (2017) 2160p 4K UHD

    2017
    Alien: Covenant (2017) 2160p 4K UHD

    0.0 2h 2m 2017

    Descargar gratis Alien: Covenant (2017) 2160p 4K UHD. Rumb a un remoto planeta al otro lado de la galaxia,...

    Director: Scott Lovelock

    Género: 4K HDR

    Actores: Uli Latukefu

  • Life (2017) 2160p 4K UHD Latino-Ingles

    2017
    Life (2017) 2160p 4K UHD Latino-Ingles

    0.0 1h 44m 2017

    Descargar gratis Life (2017) 2160p 4K UHD Latino-Ingles. Sis miembros de la tripulación de la Estación...

    Director: Tom Brewster

    Género: 4K UHD

    Actores: Ryan Reynolds

Comentarios 2
  • gerald - 19 julio, 2017

    el audio esta adelantado

    • dpelis

      Administrador
      - 20 julio, 2017

      si estimado. ya fue reparado. en el nombre del rar, tiene el nombre REPARADO, saludos