Advertise here

Valkyrie (2008) 1080p BluRay x265 HEVC DTS Dual Latino

847 vistas
1 estrella2 estrellas3 estrellas4 estrellas5 estrellas (1 votos, promedio: 1,00 de 5)
Cargando…

Información de Valkyrie (2008) 1080p BluRay x265 HEVC DTS Dual Latino

Datos de la película

  • Calidad: Full 1080p
  • Audio: Español Latino AC3 5.1 BLURAY - Ingles DTS 5.1 BLURAY
  • Subtitulos: Español Latino PGS
  • Resolución: 1920x1080p
  • Formato: MKV
  • Codec: H.264
  • Encoder:
  • Mediainfo: Clic para Mostrar Datos Ver
  • Valkyrie (2008) 1080p BluRay x265 HEVC DTS Dual Latino.mkv
    Format                      : Matroska
    Format version              : Version 4 / Version 2
    File size                   : 5.53 GiB
    Duration                    : 2 h 0 min
    Overall bit rate            : 6 574 kb/s
    Encoded date                : UTC 2017-05-16 03:58:55
    Writing application         : mkvmerge v10.0.0 ('To Drown In You') 64bit
    Writing library             : libebml v1.3.4 + libmatroska v1.4.5

    Video
    ID                          : 1
    Format                      : HEVC
    Format/Info                 : High Efficiency Video Coding
    Format profile              : [email protected]@Main
    Codec ID                    : V_MPEGH/ISO/HEVC
    Duration                    : 2 h 0 min
    Bit rate                    : 4 588 kb/s
    Width                       : 1 920 pixels
    Height                      : 1 080 pixels
    Display aspect ratio        : 16:9
    Frame rate mode             : Constant
    Frame rate                  : 23.976 (24000/1001) FPS
    Color space                 : YUV
    Chroma subsampling          : 4:2:0
    Bit depth                   : 8 bits
    Bits/(Pixel*Frame)          : 0.092
    Stream size                 : 3.86 GiB (70%)
    Writing library             : x265 2.1:[Windows][GCC 5.3.1][64 bit] 8bit
    Encoding settings           : wpp / ctu=64 / min-cu-size=8 / max-tu-size=32 / tu-intra-depth=1 / tu-inter-depth=1 / me=3 / subme=3 / merange=57 / rect / no-amp / max-merge=3 / temporal-mvp / no-early-skip / rskip / rdpenalty=0 / no-tskip / no-tskip-fast / strong-intra-smoothing / no-lossless / no-cu-lossless / no-constrained-intra / no-fast-intra / open-gop / no-temporal-layers / interlace=0 / keyint=240 / min-keyint=24 / scenecut=40 / rc-lookahead=25 / lookahead-slices=4 / bframes=4 / bframe-bias=0 / b-adapt=2 / ref=4 / limit-refs=3 / limit-modes / weightp / no-weightb / aq-mode=1 / qg-size=32 / aq-strength=1.00 / cbqpoffs=0 / crqpoffs=0 / rd=4 / psy-rd=2.00 / rdoq-level=2 / psy-rdoq=1.00 / log2-max-poc-lsb=8 / no-rd-refine / signhide / deblock=0:0 / sao / no-sao-non-deblock / b-pyramid / cutree / no-intra-refresh / rc=crf / crf=20.0 / qcomp=0.60 / qpmin=0 / qpmax=69 / qpstep=4 / ipratio=1.40 / pbratio=1.30
    Default                     : Yes
    Forced                      : No
    Color range                 : Limited
    Color primaries             : BT.709
    Transfer characteristics    : BT.709
    Matrix coefficients         : BT.709

    Audio #1
    ID                          : 2
    Format                      : AC-3
    Format/Info                 : Audio Coding 3
    Format settings, Endianness : Big
    Codec ID                    : A_AC3
    Duration                    : 2 h 0 min
    Bit rate mode               : Constant
    Bit rate                    : 448 kb/s
    Channel(s)                  : 6 channels
    Channel positions           : Front: L C R, Side: L R, LFE
    Sampling rate               : 48.0 kHz
    Frame rate                  : 31.250 FPS (1536 spf)
    Bit depth                   : 16 bits
    Compression mode            : Lossy
    Stream size                 : 386 MiB (7%)
    Title                       : Español Latino AC3 5.1 [448 Kbps]
    Language                    : Spanish
    Service kind                : Complete Main
    Default                     : Yes
    Forced                      : No

    Audio #2
    ID                          : 3
    Format                      : DTS
    Format/Info                 : Digital Theater Systems
    Mode                        : 16
    Format settings, Endianness : Big
    Codec ID                    : A_DTS
    Duration                    : 2 h 0 min
    Bit rate mode               : Constant
    Bit rate                    : 1 509 kb/s
    Channel(s)                  : 6 channels
    Channel positions           : Front: L C R, Side: L R, LFE
    Sampling rate               : 48.0 kHz
    Frame rate                  : 93.750 FPS (512 spf)
    Bit depth                   : 24 bits
    Compression mode            : Lossy
    Stream size                 : 1.27 GiB (23%)
    Title                       : Inglés DTS 5.1 [1509 Kbps]
    Language                    : English
    Default                     : No
    Forced                      : No

    Text #1
    ID                          : 4
    Format                      : UTF-8
    Codec ID                    : S_TEXT/UTF8
    Codec ID/Info               : UTF-8 Plain Text
    Duration                    : 1 h 50 min
    Bit rate                    : 1 b/s
    Count of elements           : 42
    Stream size                 : 1.40 KiB (0%)
    Title                       : Subtítulos Español Latino - Forzados [SRT]
    Language                    : Spanish
    Default                     : No
    Forced                      : Yes

    Text #2
    ID                          : 5
    Format                      : PGS
    Codec ID                    : S_HDMV/PGS
    Codec ID/Info               : Picture based subtitle format used on BDs/HD-DVDs
    Duration                    : 1 h 50 min
    Bit rate                    : 29.5 kb/s
    Count of elements           : 2048
    Stream size                 : 23.3 MiB (0%)
    Title                       : Subtítulos Español Latino [PGS]
    Language                    : Spanish
    Default                     : No
    Forced                      : No

    Menu
    00:00:00.000                : :Chapter 1
    00:03:16.405                : :Chapter 2
    00:06:21.715                : :Chapter 3
    00:11:05.498                : :Chapter 4
    00:14:55.978                : :Chapter 5
    00:17:48.901                : :Chapter 6
    00:20:43.909                : :Chapter 7
    00:22:58.460                : :Chapter 8
    00:26:04.021                : :Chapter 9
    00:29:52.624                : :Chapter 10
    00:32:15.851                : :Chapter 11
    00:34:21.142                : :Chapter 12
    00:36:35.193                : :Chapter 13
    00:42:32.341                : :Chapter 14
    00:46:07.723                : :Chapter 15
    00:48:07.134                : :Chapter 16
    00:51:17.449                : :Chapter 17
    00:55:05.969                : :Chapter 18
    00:58:26.878                : :Chapter 19
    00:59:35.155                : :Chapter 20
    01:02:06.264                : :Chapter 21
    01:08:22.890                : :Chapter 22
    01:11:03.718                : :Chapter 23
    01:16:05.019                : :Chapter 24
    01:20:29.742                : :Chapter 25
    01:23:05.397                : :Chapter 26
    01:27:23.113                : :Chapter 27
    01:30:22.959                : :Chapter 28
    01:34:41.551                : :Chapter 29
    01:37:41.272                : :Chapter 30
    01:43:58.482                : :Chapter 31
    01:50:11.688                : :Chapter 32

  • Peso: 5.53 GB

Sinopsis

Cruise interpreta al coronel alemán Claus von Stauffenberg, un aristocrático oficial alemán que lideró el heroico intento de derrocar al régimen nazi y acabar con la guerra colocando una bomba en el bunker de Hitler en 1944. Gravemente herido en combate, el Coronel Claus von Stauffenberg vuelve de África para unirse a la resistencia alemana y ayuda a organizar la Operación Valkiria, el complejo plan para que un gobierno en la sombra reemplazara al de Hitler una vez que éste hubiera muerto. Pero el destino y las circunstancias conspiran para proyectar a Stauffenberg de uno de los muchos implicados en el complot a un papel central de doble filo. No sólo debe liderar el golpe y tomar el control del gobierno de su país… también debe matar al propio Hitler.

Ficha técnica

Video trailer de la película

Enlaces de descarga

Descargar
Descargar Valkyrie (2008) 1080p BluRay x265 HEVC DTS Dual Latino

dpeliculas

Aportes de DPeliculasHDmega la pass es:dpeliculashdmega.org Aportes de CinemaniaHD la pass es:cinemaniahdd.com

Películas relacionadas

  • Pilgrimage (2017) WEB-DL 1080p Latino

    2017
    Pilgrimage (2017) WEB-DL 1080p Latino

    0.0 1 h 36 min 2017

    “Roma ha hablado”, con esa frase unos monjes cristianos deben comenzar la peregrinación hacia Roma...

    Director: Sophie Higel

    Género: Acción

    Actores: Tristan McConnell

  • The Bourne Ultimátum (2007) Full 1080p Latino

    2007
    The Bourne Ultimátum (2007) Full 1080p Latino

    5.0 1 h 55 min 2007

    Jason Bourne sigue investigando quién es y qué hay realmente detrás del programa secreto de la CIA...

    Director: Sue Mahoney

    Género: Acción

    Actores: William H. Burns

  • The Bourne Supremacy (2004) Full 1080p Latino

    2004
    The Bourne Supremacy (2004) Full 1080p Latino

    5.0 1h 48m 2004

    El pasado de Jason Bourne vuelve por él. En la segunda entrega de la saga de tres películas basadas...

    Director: Thorne Mutert

    Género: Acción

    Actores: Yevgeni Sitokhin

  • La ola (Bølgen) (2015) Full 1080p Latino

    2015
    La ola (Bølgen) (2015) Full 1080p Latino

    0.0 1 h 45 min 2015

    Nadie estaba realmente preparado para la caída del paso de montaña de Åkneset sobre el estrecho fiordo...

    Director: Roar Uthaug

    Género: Acción

    Actores: Tyra Holmen

Comentarios 2
  • rodrigo - 18 junio, 2017

    tengo problema con reproducion de es ta pelicula se escucha bien la imagen se que pegada espero su repuesta

    • dpelis

      Administrador
      - 18 junio, 2017

      esta es un codec 265, necesita una pc que sea buena en procesador , y necesita el reproductor media player classic, de lo contrario la imagen se congelara, sino tiene una buena pc debe descargar codec 264, saludos