Unforgettable (2017) Full 1080p Latino

1.266 vistas
1 estrella2 estrellas3 estrellas4 estrellas5 estrellas (Ninguna valoración todavía)
Cargando…

Información de Unforgettable (2017) Full 1080p Latino

Datos de la película

  • Calidad: Full 1080p
  • Audio: Español Latino AC3 5.1 BLURAY - Ingles DTS 5.1 BLURAY
  • Subtitulos: Español Latino PGS - Ingles PGS
  • Resolución: 1920x1080p
  • Formato: MKV
  • Codec: H.264
  • Encoder: Dpelis
  • Mediainfo: Ver Ver
  • Unforgettable (2017) Full 1080p Latino.mkv
    Format                      : Matroska
    Format version              : Version 4 / Version 2
    File size                   : 4.56 GiB
    Duration                    : 1 h 40 min
    Overall bit rate            : 6 519 kb/s
    Movie name                  : DPeliculasHDMega.ORG
    Encoded date                : UTC 2017-07-14 01:53:34 / UTC 2017-07-13T00:53:35Z
    Writing application         : mkvmerge v10.0.0 ('To Drown In You') 64bit
    Writing library             : libebml v1.3.4 + libmatroska v1.4.5 / Lavf57.7.2

    Video
    ID                          : 1
    Format                      : AVC
    Format/Info                 : Advanced Video Codec
    Format profile              : [email protected]
    Format settings, CABAC      : Yes
    Format settings, ReFrames   : 4 frames
    Codec ID                    : V_MPEG4/ISO/AVC
    Duration                    : 1 h 40 min
    Bit rate                    : 4 240 kb/s
    Width                       : 1 920 pixels
    Height                      : 1 080 pixels
    Display aspect ratio        : 16:9
    Frame rate mode             : Constant
    Frame rate                  : 23.976 (24000/1001) FPS
    Color space                 : YUV
    Chroma subsampling          : 4:2:0
    Bit depth                   : 8 bits
    Scan type                   : Progressive
    Bits/(Pixel*Frame)          : 0.085
    Stream size                 : 2.97 GiB (65%)
    Writing library             : x264 core 148 r2708 86b7198
    Encoding settings           : cabac=1 / ref=4 / deblock=1:0:0 / analyse=0x3:0x133 / me=esa / subme=10 / psy=1 / psy_rd=1.00:0.00 / mixed_ref=1 / me_range=24 / chroma_me=1 / trellis=2 / 8x8dct=1 / cqm=0 / deadzone=21,11 / fast_pskip=1 / chroma_qp_offset=-2 / threads=12 / lookahead_threads=2 / sliced_threads=0 / nr=0 / decimate=1 / interlaced=0 / bluray_compat=0 / constrained_intra=0 / bframes=8 / b_pyramid=2 / b_adapt=2 / b_bias=0 / direct=3 / weightb=1 / open_gop=0 / weightp=2 / keyint=240 / keyint_min=24 / scenecut=40 / intra_refresh=0 / rc_lookahead=60 / rc=crf / mbtree=1 / crf=20.0 / qcomp=0.60 / qpmin=0 / qpmax=69 / qpstep=4 / vbv_maxrate=62500 / vbv_bufsize=78125 / crf_max=0.0 / nal_hrd=none / filler=0 / ip_ratio=1.40 / aq=1:1.00
    Default                     : Yes
    Forced                      : No
    Color range                 : Limited
    Color primaries             : BT.709
    Transfer characteristics    : BT.709
    Matrix coefficients         : BT.709
    Statistics Tags Issue       : mkvmerge v10.0.0 ('To Drown In You') 64bit 2017-07-14 01:53:34 / mkvmerge v10.0.0 ('To Drown In You') 64bit 2017-07-14 01:53:34 / UTC 2017-07-13T00:53:35Z
    FromStats_BitRate           : 4348159
    FromStats_Duration          : 01:40:08.044000000
    FromStats_FrameCount        : 144049
    FromStats_StreamSize        : 3265491989

    Audio #1
    ID                          : 2
    Format                      : AC-3
    Format/Info                 : Audio Coding 3
    Format settings, Endianness : Big
    Codec ID                    : A_AC3
    Duration                    : 1 h 40 min
    Bit rate mode               : Constant
    Bit rate                    : 640 kb/s
    Channel(s)                  : 6 channels
    Channel positions           : Front: L C R, Side: L R, LFE
    Sampling rate               : 48.0 kHz
    Frame rate                  : 31.250 FPS (1536 spf)
    Bit depth                   : 16 bits
    Compression mode            : Lossy
    Stream size                 : 458 MiB (10%)
    Title                       : Surround
    Language                    : Spanish
    Service kind                : Complete Main
    Default                     : Yes
    Forced                      : No
    Statistics Tags Issue       : mkvmerge v10.0.0 ('To Drown In You') 64bit 2017-07-14 01:53:34 / mkvmerge v10.0.0 ('To Drown In You') 64bit 2017-07-14 01:53:34 / UTC 2017-07-13T00:53:35Z
    FromStats_BitRate           : 640000
    FromStats_Duration          : 01:40:08.064000000
    FromStats_FrameCount        : 187752
    FromStats_StreamSize        : 480645120

    Audio #2
    ID                          : 3
    Format                      : DTS
    Format/Info                 : Digital Theater Systems
    Mode                        : 16
    Format settings, Endianness : Big
    Codec ID                    : A_DTS
    Duration                    : 1 h 40 min
    Bit rate mode               : Constant
    Bit rate                    : 1 509 kb/s
    Channel(s)                  : 6 channels
    Channel positions           : Front: L C R, Side: L R, LFE
    Sampling rate               : 48.0 kHz
    Frame rate                  : 93.750 FPS (512 spf)
    Bit depth                   : 24 bits
    Compression mode            : Lossy
    Stream size                 : 1.06 GiB (23%)
    Title                       : Surround
    Language                    : English
    Default                     : No
    Forced                      : No
    Statistics Tags Issue       : mkvmerge v10.0.0 ('To Drown In You') 64bit 2017-07-14 01:53:34 / mkvmerge v10.0.0 ('To Drown In You') 64bit 2017-07-14 01:53:34 / UTC 2017-07-13T00:53:35Z
    FromStats_BitRate           : 1508999
    FromStats_Duration          : 01:40:08.043000000
    FromStats_FrameCount        : 563254
    FromStats_StreamSize        : 1133267048

    Text #1
    ID                          : 4
    Format                      : PGS
    Muxing mode                 : zlib
    Codec ID                    : S_HDMV/PGS
    Codec ID/Info               : Picture based subtitle format used on BDs/HD-DVDs
    Language                    : Spanish
    Default                     : No
    Forced                      : No
    Statistics Tags Issue       : mkvmerge v10.0.0 ('To Drown In You') 64bit 2017-07-14 01:53:34 / mkvmerge v10.0.0 ('To Drown In You') 64bit 2017-07-14 01:53:34 / UTC 2017-07-13T00:53:35Z
    FromStats_BitRate           : 8547
    FromStats_Duration          : 01:39:11.487000000
    FromStats_FrameCount        : 2376
    FromStats_StreamSize        : 6358993

    Text #2
    ID                          : 5
    Format                      : PGS
    Muxing mode                 : zlib
    Codec ID                    : S_HDMV/PGS
    Codec ID/Info               : Picture based subtitle format used on BDs/HD-DVDs
    Language                    : Spanish
    Default                     : No
    Forced                      : No
    Statistics Tags Issue       : mkvmerge v10.0.0 ('To Drown In You') 64bit 2017-07-14 01:53:34 / mkvmerge v10.0.0 ('To Drown In You') 64bit 2017-07-14 01:53:34 / UTC 2017-07-13T00:53:35Z
    FromStats_BitRate           : 331
    FromStats_Duration          : 01:38:49.257000000
    FromStats_FrameCount        : 68
    FromStats_StreamSize        : 245957

    Text #3
    ID                          : 6
    Format                      : PGS
    Muxing mode                 : zlib
    Codec ID                    : S_HDMV/PGS
    Codec ID/Info               : Picture based subtitle format used on BDs/HD-DVDs
    Language                    : English
    Default                     : No
    Forced                      : No
    Statistics Tags Issue       : mkvmerge v10.0.0 ('To Drown In You') 64bit 2017-07-14 01:53:34 / mkvmerge v10.0.0 ('To Drown In You') 64bit 2017-07-14 01:53:34 / UTC 2017-07-13T00:53:35Z
    FromStats_BitRate           : 10034
    FromStats_Duration          : 01:39:04.313000000
    FromStats_FrameCount        : 2666
    FromStats_StreamSize        : 7456164

    Menu
    00:00:00.000                : :Chapter 1
    00:09:57.055                : :Chapter 2
    00:18:48.044                : :Chapter 3
    00:28:13.984                : :Chapter 4
    00:36:48.832                : :Chapter 5
    00:47:02.320                : :Chapter 6
    00:56:55.370                : :Chapter 7
    01:08:42.160                : :Chapter 8
    01:17:40.322                : :Chapter 9
    01:26:15.629                : :Chapter 10
    01:37:16.164                : :Chapter 11

  • Peso: 4.56 GB

Sinopsis

Tessa Connover (Katherine Heigl) apenas lidia con el final de su matrimonio cuando su ex- marido, David (Geoff Stults), se compromete dichosamente con Julia Banks (Rosario Dawson), no solo llevando a Julia al hogar que una vez compartieron Sino más bien asimismo en la vida de su hija, Lilly (Isabella Rice). Tratando de asentarse en su nuevo papel como esposa y madrastra, Julia piensa que por último ha conocido al hombre de sus sueños, el hombre que puede asistirla a poner su pasado trastocado detrás de ella. Mas los celos de Tessa toman pronto un giro patológico hasta el momento en que no se detendrá ante cosa alguna para transformar el sueño de Julia en su última pesadilla.

Ficha técnica

Imágenes, Capturas de la película

Video trailer de la película

Enlaces de descarga

Descargar Unforgettable (2017) Full 1080p Latino
Descargar

dpeliculas

Aportes de DPeliculasHDmega la pass es:dpeliculashdmega.org Aportes de CinemaniaHD la pass es:cinemaniahdd.com
Guardado en : Drama , FULL 1080p Pesadas , Suspense

PelícuDelas relacionadas

  • Dragon Ball Super (2015) Full 1080p Latino

    2015
    Dragon Ball Super (2015) Full 1080p Latino

    4.1 0h 24m 2015

    Si eres un seguidor de la serie Dragon ball super latino, entonces ahora puedes disfrutar de esta maravillosa...

    Director: Akira Toriyama

    Género: Anime

    Actores: Naoki Tatsuta

  • Una historia de venganza (2017) 1080p Latino

    2017
    Una historia de venganza (2017) 1080p Latino

    0.0 1 h 33 min 2017

    Una historia de venganza narra la historia del accidente real de avión que tuvo lugar en Überlingen...

    Director: Sarah Horton

    Género: Drama

    Actores: William Willet

  • Ahora me ves 2 (2016) 2160p 4K UHD HDR Latino-Ingles

    2016
    Ahora me ves 2 (2016) 2160p 4K UHD HDR Latino-Ingles

    0.0 1h 55m 2016

    Descargar gratis Ahora me ves 2 (2016) 2160p 4K UHD HDR Latino-Ingles. Un año dspués de despistar al...

    Director: Jon M. Chu

    Género: Acción

    Actores: Zoey Callandria Jones

Comentarios 1
  • Jhefferson - 14 julio, 2017

    Genial se agradece esta pelicula q la descargare y me la colocare a ver q bien loca si q pinta xD muchas gracias