Una noche fuera de control (2017) 1080p Latino

1.904 vistas
1 estrella2 estrellas3 estrellas4 estrellas5 estrellas (Ninguna valoración todavía)
Cargando…

Información de Una noche fuera de control (2017) 1080p Latino

Datos de la película

  • Calidad: 1080p
  • Audio: Español Latino AC3 5.1 BLURAY - Ingles AC3 5.1 BLURAY
  • Subtitulos: Español Latino SRT - Ingles SRT
  • Resolución: 1920x804p
  • Formato: MKV
  • Codec: H.264
  • Encoder: Dpelis
  • Mediainfo: Ver Ver
  • Rough Night (2017) 1080p Latino.mkv
    Format                      : Matroska
    Format version              : Version 4 / Version 2
    File size                   : 2.99 GiB
    Duration                    : 1 h 40 min
    Overall bit rate            : 4 241 kb/s
    Movie name                  : DPeliculasHDMega.ORG
    Encoded date                : UTC 2017-08-20 14:26:54 / UTC 2017-08-20T05:50:51Z
    Writing application         : mkvmerge v10.0.0 ('To Drown In You') 64bit
    Writing library             : libebml v1.3.4 + libmatroska v1.4.5 / Lavf57.7.2

    Video
    ID                          : 1
    Format                      : AVC
    Format/Info                 : Advanced Video Codec
    Format profile              : [email protected]
    Format settings, CABAC      : Yes
    Format settings, ReFrames   : 4 frames
    Codec ID                    : V_MPEG4/ISO/AVC
    Duration                    : 1 h 40 min
    Bit rate                    : 3 500 kb/s
    Width                       : 1 920 pixels
    Height                      : 804 pixels
    Display aspect ratio        : 2.40:1
    Frame rate mode             : Constant
    Frame rate                  : 23.976 (24000/1001) FPS
    Color space                 : YUV
    Chroma subsampling          : 4:2:0
    Bit depth                   : 8 bits
    Scan type                   : Progressive
    Bits/(Pixel*Frame)          : 0.095
    Stream size                 : 2.39 GiB (80%)
    Writing library             : x264 core 148 r2708 86b7198
    Encoding settings           : cabac=1 / ref=3 / deblock=1:0:0 / analyse=0x3:0x113 / me=hex / subme=7 / psy=1 / psy_rd=1.00:0.00 / mixed_ref=1 / me_range=16 / chroma_me=1 / trellis=1 / 8x8dct=1 / cqm=0 / deadzone=21,11 / fast_pskip=1 / chroma_qp_offset=-2 / threads=12 / lookahead_threads=2 / sliced_threads=0 / nr=0 / decimate=1 / interlaced=0 / bluray_compat=0 / constrained_intra=0 / bframes=3 / b_pyramid=2 / b_adapt=1 / b_bias=0 / direct=1 / weightb=1 / open_gop=0 / weightp=2 / keyint=240 / keyint_min=24 / scenecut=40 / intra_refresh=0 / rc_lookahead=40 / rc=abr / mbtree=1 / bitrate=3500 / ratetol=1.0 / qcomp=0.60 / qpmin=0 / qpmax=69 / qpstep=4 / vbv_maxrate=62500 / vbv_bufsize=78125 / nal_hrd=none / filler=0 / ip_ratio=1.40 / aq=1:1.00
    Default                     : Yes
    Forced                      : No
    Color range                 : Limited
    Color primaries             : BT.709
    Transfer characteristics    : BT.709
    Matrix coefficients         : BT.709
    Statistics Tags Issue       : mkvmerge v10.0.0 ('To Drown In You') 64bit 2017-08-20 14:26:54 / mkvmerge v10.0.0 ('To Drown In You') 64bit 2017-08-20 14:26:54 / UTC 2017-08-20T05:50:51Z
    FromStats_BitRate           : 3470296
    FromStats_Duration          : 01:40:50.044000000
    FromStats_FrameCount        : 145056
    FromStats_StreamSize        : 2624430875

    Audio #1
    ID                          : 2
    Format                      : AC-3
    Format/Info                 : Audio Coding 3
    Format settings, Endianness : Big
    Codec ID                    : A_AC3
    Duration                    : 1 h 40 min
    Bit rate mode               : Constant
    Bit rate                    : 384 kb/s
    Channel(s)                  : 6 channels
    Channel positions           : Front: L C R, Side: L R, LFE
    Sampling rate               : 48.0 kHz
    Frame rate                  : 31.250 FPS (1536 spf)
    Bit depth                   : 16 bits
    Compression mode            : Lossy
    Delay relative to video     : -5 ms
    Stream size                 : 277 MiB (9%)
    Language                    : Spanish
    Service kind                : Complete Main
    Default                     : Yes
    Forced                      : No
    Statistics Tags Issue       : mkvmerge v10.0.0 ('To Drown In You') 64bit 2017-08-20 14:26:54 / mkvmerge v10.0.0 ('To Drown In You') 64bit 2017-08-20 14:26:54 / UTC 2017-08-20T05:50:51Z
    FromStats_BitRate           : 384000
    FromStats_Duration          : 01:40:50.080000000
    FromStats_FrameCount        : 189065
    FromStats_StreamSize        : 290403840

    Audio #2
    ID                          : 3
    Format                      : AC-3
    Format/Info                 : Audio Coding 3
    Format settings, Endianness : Big
    Codec ID                    : A_AC3
    Duration                    : 1 h 40 min
    Bit rate mode               : Constant
    Bit rate                    : 384 kb/s
    Channel(s)                  : 6 channels
    Channel positions           : Front: L C R, Side: L R, LFE
    Sampling rate               : 48.0 kHz
    Frame rate                  : 31.250 FPS (1536 spf)
    Bit depth                   : 16 bits
    Compression mode            : Lossy
    Delay relative to video     : -5 ms
    Stream size                 : 277 MiB (9%)
    Title                       : Surround
    Language                    : English
    Service kind                : Complete Main
    Default                     : No
    Forced                      : No
    Statistics Tags Issue       : mkvmerge v10.0.0 ('To Drown In You') 64bit 2017-08-20 14:26:54 / mkvmerge v10.0.0 ('To Drown In You') 64bit 2017-08-20 14:26:54 / UTC 2017-08-20T05:50:51Z
    FromStats_BitRate           : 384000
    FromStats_Duration          : 01:40:50.016000000
    FromStats_FrameCount        : 189063
    FromStats_StreamSize        : 290400768

    Text #1
    ID                          : 4
    Format                      : UTF-8
    Codec ID                    : S_TEXT/UTF8
    Codec ID/Info               : UTF-8 Plain Text
    Language                    : Spanish
    Default                     : Yes
    Forced                      : No
    Statistics Tags Issue       : mkvmerge v10.0.0 ('To Drown In You') 64bit 2017-08-20 14:26:54 / mkvmerge v10.0.0 ('To Drown In You') 64bit 2017-08-20 14:26:54 / UTC 2017-08-20T05:50:51Z
    FromStats_BitRate           : 75
    FromStats_Duration          : 01:39:07.572000000
    FromStats_FrameCount        : 1708
    FromStats_StreamSize        : 56383

    Text #2
    ID                          : 5
    Format                      : UTF-8
    Codec ID                    : S_TEXT/UTF8
    Codec ID/Info               : UTF-8 Plain Text
    Language                    : English
    Default                     : No
    Forced                      : No
    Statistics Tags Issue       : mkvmerge v10.0.0 ('To Drown In You') 64bit 2017-08-20 14:26:54 / mkvmerge v10.0.0 ('To Drown In You') 64bit 2017-08-20 14:26:54 / UTC 2017-08-20T05:50:51Z
    FromStats_BitRate           : 110
    FromStats_Duration          : 01:40:00.691000000
    FromStats_FrameCount        : 2397
    FromStats_StreamSize        : 82547

    Menu
    00:00:00.000                : :00:00:00.000
    00:04:44.451                : :00:04:44.326
    00:08:05.276                : :00:08:05.276
    00:15:19.210                : :00:15:19.210
    00:25:46.295                : :00:25:46.295
    00:34:27.023                : :00:34:27.023
    00:39:51.264                : :00:39:51.264
    00:43:11.089                : :00:43:11.088
    00:46:26.617                : :00:46:26.617
    00:49:09.530                : :00:49:09.530
    00:53:44.179                : :00:53:44.179
    00:59:37.657                : :00:59:37.657
    01:02:53.937                : :01:02:53.937
    01:11:56.646                : :01:11:56.646
    01:22:55.679                : :01:22:55.679
    01:30:58.328                : :01:30:58.328

  • Peso: 2.99GB

Sinopsis

Descargar Rough Night 1080p latino, tambien conocida como Una noche fuera de control  Latino, Pelicula No recomendada para menores 16 años . Jess (Scarlett Johansson), Alice (Jillian Bell), Frankie (Ilana Glazer) y Blair (Zoë Kravitz) son amigas desde la Universidad. Ya ha pasado una década desde su época de estudiantes y, ahora, las cuatro se reúnen de nuevo para celebrar que Jess va a casarse con su prometido Peter. Alice convence a las demás de ir a celebrarlo a Miami, así que emprenden un viaje acompañadas de Pippa (Kate McKinnon), una amiga australiana de Jess. Las cinco mujeres alquilan una casa frente a la playa en Miami, donde piensan llevar a cabo la despedida de soltera. La fiesta está en su máximo apogeo cuando deciden contratar a un stripper. Pero ahí será cuando todo se tuerza, pues el hombre muere accidentalmente. Tras esto, ellas tendrán que decidir qué hacer a partir de ese momento mientras los problemas comienzan a sucederse.

Lucia Aniello (la serie Broad City) dirige esta comedia dramática que ha escrito junto a Paul W. Downs (la serie Paulilu Mixtape). El reparto principal está formado por Scarlett Johansson (Ghost in the Shell: El alma de la máquina, Los Vengadores), Kate McKinnon (Cazafantasmas, Fiesta de empresa), Zoë Kravitz (Mad Max: Furia en la carretera, la saga Divergente), Jillian Bell (Pesadillas, Infiltrados en la Universidad), Colton Haynes (San Andrés, la serie Arrow), Demi Moore (Como reinas, Algunos hombres buenos) y Ty Burrell (la serie Modern Family, Morning Glory).

Ficha técnica

  • Titulo original: Rough Night
  • Fecha de lanzamiento: 16-06-2017 (United States of America)
  • Director: Lucia Aniello
  • Género: Comedia, Drama
  • Puntuación: 0.0 0 votos
  • Duración:
    1h 40m

Imágenes, Capturas de la película

Video trailer de la película

Enlaces de descarga

Descargar Una noche fuera de control (2017) 1080p Latino
Descargar

dpeliculas

Aportes de DPeliculasHDmega la pass es:dpeliculashdmega.org Aportes de CinemaniaHD la pass es:cinemaniahdd.com
Guardado en : Comedia , Drama

PelícuDelas relacionadas

Comentarios 0