Advertise here

Una noche con mi exsuegro (2017) 1080p Latino

1.189 vistas
1 estrella2 estrellas3 estrellas4 estrellas5 estrellas (Ninguna valoración todavía)
Cargando…

Información de Una noche con mi exsuegro (2017) 1080p Latino

Datos de la película

  • Calidad: 1080p
  • Audio: Español Latino AC3 2.0 Capturado - Ingles AC3 5.1 BLURAY
  • Subtitulos: Español Latino SRT
  • Resolución: 1918x792p
  • Formato: MKV
  • Codec: H.264
  • Encoder: Dpelis
  • Mediainfo: Clic para Mostrar Datos Ver
  • All Nighter (2017) 1080p Latino.mkv
    Format                      : Matroska
    Format version              : Version 4 / Version 2
    File size                   : 2.40 GiB
    Duration                    : 1 h 25 min
    Overall bit rate            : 3 995 kb/s
    Movie name                  : DPeliculasHDMega.ORG
    Encoded date                : UTC 2017-10-21 20:16:25 / UTC 2017-10-21T19:29:46Z
    Writing application         : mkvmerge v10.0.0 ('To Drown In You') 64bit
    Writing library             : libebml v1.3.4 + libmatroska v1.4.5 / Lavf57.7.2

    Video
    ID                          : 1
    Format                      : AVC
    Format/Info                 : Advanced Video Codec
    Format profile              : [email protected]
    Format settings, CABAC      : Yes
    Format settings, RefFrames  : 5 frames
    Codec ID                    : V_MPEG4/ISO/AVC
    Duration                    : 1 h 25 min
    Bit rate                    : 3 500 kb/s
    Width                       : 1 918 pixels
    Height                      : 792 pixels
    Display aspect ratio        : 2.40:1
    Frame rate mode             : Constant
    Frame rate                  : 23.976 (24000/1001) FPS
    Color space                 : YUV
    Chroma subsampling          : 4:2:0
    Bit depth                   : 8 bits
    Scan type                   : Progressive
    Bits/(Pixel*Frame)          : 0.096
    Stream size                 : 2.00 GiB (84%)
    Writing library             : x264 core 148 r2708 86b7198
    Encoding settings           : cabac=1 / ref=5 / deblock=1:0:0 / analyse=0x3:0x113 / me=umh / subme=8 / psy=1 / psy_rd=1.00:0.00 / mixed_ref=1 / me_range=16 / chroma_me=1 / trellis=1 / 8x8dct=1 / cqm=0 / deadzone=21,11 / fast_pskip=1 / chroma_qp_offset=-2 / threads=25 / lookahead_threads=4 / sliced_threads=0 / nr=0 / decimate=1 / interlaced=0 / bluray_compat=0 / constrained_intra=0 / bframes=3 / b_pyramid=2 / b_adapt=2 / b_bias=0 / direct=3 / weightb=1 / open_gop=0 / weightp=2 / keyint=240 / keyint_min=24 / scenecut=40 / intra_refresh=0 / rc_lookahead=50 / rc=abr / mbtree=1 / bitrate=3500 / ratetol=1.0 / qcomp=0.60 / qpmin=0 / qpmax=69 / qpstep=4 / vbv_maxrate=62500 / vbv_bufsize=78125 / nal_hrd=none / filler=0 / ip_ratio=1.40 / aq=1:1.00
    Default                     : Yes
    Forced                      : No
    Color range                 : Limited
    Color primaries             : BT.709
    Transfer characteristics    : BT.709
    Matrix coefficients         : BT.709
    Statistics Tags Issue       : mkvmerge v10.0.0 ('To Drown In You') 64bit 2017-10-21 20:16:25 / mkvmerge v10.0.0 ('To Drown In You') 64bit 2017-10-21 20:16:25 / UTC 2017-10-21T19:29:46Z
    FromStats_BitRate           : 3419967
    FromStats_Duration          : 01:25:55.234000000
    FromStats_FrameCount        : 123602
    FromStats_StreamSize        : 2203841574

    Audio #1
    ID                          : 2
    Format                      : AC-3
    Format/Info                 : Audio Coding 3
    Format settings, Endianness : Big
    Codec ID                    : A_AC3
    Duration                    : 1 h 25 min
    Bit rate mode               : Constant
    Bit rate                    : 192 kb/s
    Channel(s)                  : 2 channels
    Channel positions           : Front: L R
    Sampling rate               : 48.0 kHz
    Frame rate                  : 31.250 FPS (1536 SPF)
    Bit depth                   : 16 bits
    Compression mode            : Lossy
    Delay relative to video     : 295 ms
    Stream size                 : 118 MiB (5%)
    Language                    : Spanish
    Service kind                : Complete Main
    Default                     : Yes
    Forced                      : No
    Statistics Tags Issue       : mkvmerge v10.0.0 ('To Drown In You') 64bit 2017-10-21 20:16:25 / mkvmerge v10.0.0 ('To Drown In You') 64bit 2017-10-21 20:16:25 / UTC 2017-10-21T19:29:46Z
    FromStats_BitRate           : 192000
    FromStats_Duration          : 01:24:35.904000000
    FromStats_FrameCount        : 158622
    FromStats_StreamSize        : 121821696

    Audio #2
    ID                          : 3
    Format                      : AC-3
    Format/Info                 : Audio Coding 3
    Format settings, Endianness : Big
    Codec ID                    : A_AC3
    Duration                    : 1 h 25 min
    Bit rate mode               : Constant
    Bit rate                    : 384 kb/s
    Channel(s)                  : 6 channels
    Channel positions           : Front: L C R, Side: L R, LFE
    Sampling rate               : 48.0 kHz
    Frame rate                  : 31.250 FPS (1536 SPF)
    Bit depth                   : 16 bits
    Compression mode            : Lossy
    Delay relative to video     : -5 ms
    Stream size                 : 236 MiB (10%)
    Title                       : Surround
    Language                    : English
    Service kind                : Complete Main
    Default                     : No
    Forced                      : No
    Statistics Tags Issue       : mkvmerge v10.0.0 ('To Drown In You') 64bit 2017-10-21 20:16:25 / mkvmerge v10.0.0 ('To Drown In You') 64bit 2017-10-21 20:16:25 / UTC 2017-10-21T19:29:46Z
    FromStats_BitRate           : 384000
    FromStats_Duration          : 01:25:55.200000000
    FromStats_FrameCount        : 161100
    FromStats_StreamSize        : 247449600

    Text
    ID                          : 4
    Format                      : UTF-8
    Codec ID                    : S_TEXT/UTF8
    Codec ID/Info               : UTF-8 Plain Text
    Default                     : Yes
    Forced                      : No
    Statistics Tags Issue       : mkvmerge v10.0.0 ('To Drown In You') 64bit 2017-10-21 20:16:25 / mkvmerge v10.0.0 ('To Drown In You') 64bit 2017-10-21 20:16:25 / UTC 2017-10-21T19:29:46Z
    FromStats_BitRate           : 65
    FromStats_Duration          : 01:20:19.878000000
    FromStats_FrameCount        : 1406
    FromStats_StreamSize        : 39535

    Menu
    00:00:00.083                : : Chapter 1
    00:12:17.278                : : Chapter 2
    00:24:11.492                : : Chapter 3
    00:34:18.431                : : Chapter 4
    00:48:01.170                : : Chapter 5
    00:59:37.240                : : Chapter 6
    01:10:59.505                : : Chapter 7
    01:20:11.890                : : Chapter 8

  • Peso: 2.40 GB

Sinopsis

Un padre adicto al trabajo intenta visitar a su hija durante una escala en Los Ángeles, sólo para descubrir que ella ha desaparecido, se ve obligado a formar equipo con su torpe ex novio para encontrarla en el transcurso de una noche transformadora.

Ficha técnica

  • Titulo original: All Nighter
  • Fecha de lanzamiento: 10-03-2017 (United States of America)
  • Director: Gavin Wiesen
  • Género: Comedia
  • Puntuación: 0.0 0 votos
  • Duración:
    1h 26m

Video trailer de la película

Enlaces de descarga

Descargar Una noche con mi exsuegro (2017) 1080p Latino
Descargar

dpeliculas

Aportes de DPeliculasHDmega la pass es:dpeliculashdmega.org Aportes de CinemaniaHD la pass es:cinemaniahdd.com
Guardado en : Comedia

Películas relacionadas

  • Crash Pad (2017) WEB-DL 1080p Latino

    2017
    Crash Pad (2017) WEB-DL 1080p Latino

    0.0 1 h 33 min 2017

    Un romántico sin esperanza que cree que ha encontrado el amor verdadero con una mujer mayor, solo para...

    Director: Kevin Tent

    Género: Comedia

    Actores: Vladimir Ruzich

  • Toy Story 3 (2010) Full 1080p Latino

    2010
    Toy Story 3 (2010) Full 1080p Latino

    0.0 1 h 43 min 2010

    Sabiendo que su dueño Andy, que ya no es un niño, se prepara para ir a la universidad, el vaquero Woody,...

    Director: Mark Sanford

    Género: Animación

    Actores: Whoopi Goldberg

  • Toy Story (1995) Full 1080p Latino

    1995
    Toy Story (1995) Full 1080p Latino

    0.0 1 h 21 min 1995

    Los juguetes de Andy, un niño de 6 años, temen que haya llegado su hora y que un nuevo regalo de cumpleaños...

    Director: Roman Figun

    Género: Animación

    Actores: Wallace Shawn

Comentarios 0