Un Jefe en Pañales (2017) WEBDL 1080p Latino

10.140 vistas
1 estrella2 estrellas3 estrellas4 estrellas5 estrellas (6 votos, promedio: 3,00 de 5)
Cargando…

Información de Un Jefe en Pañales (2017) WEBDL 1080p Latino

un jefe en pañales 1080p latino

Datos de la película

  • Calidad: WEBDL
  • Audio: Se especifica abajo de la Sinopsis
  • Subtitulos: Español Latino SRT - Ingles SRT
  • Resolución: 1916x800p
  • Formato: MKV
  • Codec: H.264
  • Encoder: Dpelis
  • Mediainfo: Ver Ver
  • The.Boss.Baby.2017.1080p.WEB-Latino.mkv
    Format                      : Matroska
    Format version              : Version 4 / Version 2
    File size                   : 3.55 GiB
    Duration                    : 1 h 37 min
    Overall bit rate            : 5 195 kb/s
    Movie name                  : DPeliculasHDMega.ORG
    Encoded date                : UTC 2017-05-18 23:56:00
    Writing application         : mkvmerge v10.0.0 ('To Drown In You') 64bit
    Writing library             : libebml v1.3.4 + libmatroska v1.4.5
    Cover                       : Yes
    Attachments                 : cover.jpg / cover_land.jpg / small_cover.jpg / small_cover_land.jpg

    Video
    ID                          : 1
    Format                      : AVC
    Format/Info                 : Advanced Video Codec
    Format profile              : [email protected]
    Format settings, CABAC      : Yes
    Format settings, ReFrames   : 5 frames
    Codec ID                    : V_MPEG4/ISO/AVC
    Duration                    : 1 h 37 min
    Bit rate                    : 4 491 kb/s
    Width                       : 1 916 pixels
    Height                      : 812 pixels
    Display aspect ratio        : 2.35:1
    Frame rate mode             : Constant
    Frame rate                  : 23.976 (24000/1001) FPS
    Color space                 : YUV
    Chroma subsampling          : 4:2:0
    Bit depth                   : 8 bits
    Scan type                   : Progressive
    Bits/(Pixel*Frame)          : 0.120
    Stream size                 : 3.07 GiB (86%)
    Title                       : The.Boss.Baby.2017.1080p.WEB-DL.DD5.1.H264-FGT
    Language                    : English
    Default                     : Yes
    Forced                      : No
    Color range                 : Limited
    Color primaries             : BT.709
    Transfer characteristics    : BT.709
    Matrix coefficients         : BT.709

    Audio #1
    ID                          : 2
    Format                      : AC-3
    Format/Info                 : Audio Coding 3
    Format settings, Endianness : Big
    Codec ID                    : A_AC3
    Duration                    : 1 h 37 min
    Bit rate mode               : Constant
    Bit rate                    : 320 kb/s
    Channel(s)                  : 6 channels
    Channel positions           : Front: L C R, Side: L R, LFE
    Sampling rate               : 48.0 kHz
    Frame rate                  : 31.250 FPS (1536 spf)
    Bit depth                   : 16 bits
    Compression mode            : Lossy
    Delay relative to video     : -43 ms
    Stream size                 : 223 MiB (6%)
    Title                       : Audio Line
    Language                    : Spanish
    Service kind                : Complete Main
    Default                     : Yes
    Forced                      : No

    Audio #2
    ID                          : 3
    Format                      : AC-3
    Format/Info                 : Audio Coding 3
    Format settings, Endianness : Big
    Codec ID                    : A_AC3
    Duration                    : 1 h 37 min
    Bit rate mode               : Constant
    Bit rate                    : 384 kb/s
    Channel(s)                  : 6 channels
    Channel positions           : Front: L C R, Side: L R, LFE
    Sampling rate               : 48.0 kHz
    Frame rate                  : 31.250 FPS (1536 spf)
    Bit depth                   : 16 bits
    Compression mode            : Lossy
    Delay relative to video     : -43 ms
    Stream size                 : 268 MiB (7%)
    Language                    : English
    Service kind                : Complete Main
    Default                     : No
    Forced                      : No

    Text #1
    ID                          : 4
    Format                      : UTF-8
    Codec ID                    : S_TEXT/UTF8
    Codec ID/Info               : UTF-8 Plain Text
    Duration                    : 1 h 36 min
    Bit rate                    : 58 b/s
    Count of elements           : 1574
    Stream size                 : 41.5 KiB (0%)
    Language                    : Spanish
    Default                     : No
    Forced                      : No

    Text #2
    ID                          : 5
    Format                      : UTF-8
    Codec ID                    : S_TEXT/UTF8
    Codec ID/Info               : UTF-8 Plain Text
    Duration                    : 1 h 36 min
    Bit rate                    : 64 b/s
    Count of elements           : 1694
    Stream size                 : 45.4 KiB (0%)
    Language                    : English
    Default                     : No
    Forced                      : No

    Text #3
    ID                          : 6
    Format                      : UTF-8
    Codec ID                    : S_TEXT/UTF8
    Codec ID/Info               : UTF-8 Plain Text
    Duration                    : 10 s 100 ms
    Bit rate                    : 91 b/s
    Count of elements           : 1
    Stream size                 : 115 Bytes (0%)
    Language                    : Spanish
    Default                     : Yes
    Forced                      : No

    Menu
    00:00:00.000                : en:1
    00:03:44.891                : en:2
    00:08:57.286                : en:3
    00:11:44.911                : en:4
    00:14:58.562                : en:5
    00:19:37.215                : en:6
    00:22:51.784                : en:7
    00:28:26.243                : en:8
    00:30:25.111                : en:9
    00:33:44.477                : en:10
    00:36:56.252                : en:11
    00:39:17.351                : en:12
    00:42:34.339                : en:13
    00:46:19.605                : en:14
    00:51:36.713                : en:15
    00:53:24.278                : en:16
    00:56:27.711                : en:17
    00:59:34.397                : en:18
    01:04:02.164                : en:19
    01:08:14.749                : en:20
    01:11:28.901                : en:21
    01:16:24.238                : en:22
    01:23:09.101                : en:23
    01:27:35.951                : en:24

  • Peso: 3.55 GB

Sinopsis

Descargar Un jefe en Pañales 1080p Latino. Aquí la historia del bebé del Cabo, o más bien el Templeton bebé, un bebé, en lugar de hardware para vivir una vida normal, se mantuvo en BabyCorp, donde vienen los bebés, y lo poco que es un gran líder para venir a la tierra para salvar a los niños porque los adultos son reemplazados por los cachorros. Así que este pequeño consejo ejecutivo, este gran líder, ha descubierto los planes malvados de PuppyCorp para vencer a los recién nacidos.

Pero el niño no sabía que su hermano Tim, descubrió sus planes y tratar de encontrar delante de sus padres; después de todo, el nuevo bebé absorbe todo el amor, el tiempo y la atención de sus padres. Pero las cosas se complican, y este bebé puede dejar de PuppyCorp jefe, necesitará la ayuda de Tim; Lo que nadie sabe es que la fuerte amistad que se forman, son inseparables.

 

Nota:

Audio Latino Line AC3 2.0 ( El audio se entiende muy bien)

Audio Ingles iTunes AC3 5.1

Ficha técnica

  • Titulo original: The Boss Baby
  • Fecha de lanzamiento: 23-03-2017 (United States of America)
  • Director: Tom McGrath
  • Género: Animación, Comedia, Familia
  • Puntuación: 3.0 6 votos
  • Duración:
    1h 37m

Imágenes, Capturas de la película

Video trailer de la película

Enlaces de descarga

Descargar
Descargar Un Jefe en Pañales (2017) WEBDL 1080p Latino
Descargar

dpeliculas

Aportes de DPeliculasHDmega la pass es:dpeliculashdmega.org Aportes de CinemaniaHD la pass es:cinemaniahdd.com
Guardado en : Animación , Comedia , Familia

PelícuDelas relacionadas

  • Nightmare on Elm street 6 (1991) Full Latino

    1991
    Nightmare on Elm street 6 (1991) Full Latino

    0.0 0h 0m 1991

    Descargar gratis Nightmare on Elm street 6 (1991) Full Latino Mega. Después de diez años, Freddy Krueger...

    Director: Rachel Talalay

    Género: Comedia

    Actores: Yaphet Kotto

  • Sahara (2017) Full Latino

    2017
    Sahara (2017) Full Latino

    0.0 0h 0m 2017

    Descargar gratis Sahara (2017) Full Latino Mega. Cansados de ser el chivo expiatorio de su comunidad,...

    Director: Pierre Coré

    Género: Animación

    Actores: Vincent Lacoste

  • Sahara (2017) 1080p Latino

    2017
    Sahara (2017) 1080p Latino

    1.0 1h 19m 2017

    Cansado de ser el chivo expiatorio de su comunidad, entreabierta una serpiente y su amigo Pitt, escorpión,...

    Director: Pierre Coré

    Género: Animación

    Actores: Vincent Lacoste

  • Sahara (2017) 720p Latino

    2017
    Sahara (2017) 720p Latino

    0.0 1h 24m 2017

    Descargar Pelicula Sahara 2017 hd 720p latino,Cansados de ser el chivo expiatorio de su comunidad, Ajar...

    Director: Pierre Coré

    Género: Animación

    Actores: Vincent Lacoste

Comentarios 7