Advertise here

Un Jefe en Pañales (2017) 1080p Latino

16.329 vistas
1 estrella2 estrellas3 estrellas4 estrellas5 estrellas (6 votos, promedio: 3,00 de 5)
Cargando…

Información de Un Jefe en Pañales (2017) 1080p Latino

un jefe en pañales 1080p latino

Datos de la película

  • Calidad: 1080p
  • Audio: Español Latino AC3 5.1 BLURAY - Ingles AC3 5.1 BLURAY
  • Subtitulos: Español Latino SRT - Ingles SRT
  • Resolución: 1920x816p
  • Formato: MKV
  • Codec: H.264
  • Encoder: Dpelis
  • Mediainfo: Clic para Mostrar Datos Ver
  • The.boss.baby.2017.1080p.Latino.mkv
    Format                      : Matroska
    Format version              : Version 4 / Version 2
    File size                   : 2.91 GiB
    Duration                    : 1 h 37 min
    Overall bit rate            : 4 266 kb/s
    Movie name                  : DPelicuasHDMega.ORG
    Encoded date                : UTC 2017-07-10 20:16:47 / UTC 2017-07-09T22:12:39Z
    Writing application         : mkvmerge v10.0.0 ('To Drown In You') 64bit
    Writing library             : libebml v1.3.4 + libmatroska v1.4.5 / Lavf57.7.2

    Video
    ID                          : 1
    Format                      : AVC
    Format/Info                 : Advanced Video Codec
    Format profile              : [email protected]
    Format settings, CABAC      : Yes
    Format settings, ReFrames   : 4 frames
    Codec ID                    : V_MPEG4/ISO/AVC
    Duration                    : 1 h 37 min
    Bit rate                    : 3 500 kb/s
    Width                       : 1 920 pixels
    Height                      : 816 pixels
    Display aspect ratio        : 2.35:1
    Frame rate mode             : Constant
    Frame rate                  : 23.976 (24000/1001) FPS
    Color space                 : YUV
    Chroma subsampling          : 4:2:0
    Bit depth                   : 8 bits
    Scan type                   : Progressive
    Bits/(Pixel*Frame)          : 0.093
    Stream size                 : 2.32 GiB (80%)
    Writing library             : x264 core 148 r2708 86b7198
    Encoding settings           : cabac=1 / ref=3 / deblock=1:0:0 / analyse=0x3:0x113 / me=hex / subme=7 / psy=1 / psy_rd=1.00:0.00 / mixed_ref=1 / me_range=16 / chroma_me=1 / trellis=1 / 8x8dct=1 / cqm=0 / deadzone=21,11 / fast_pskip=1 / chroma_qp_offset=-2 / threads=13 / lookahead_threads=2 / sliced_threads=0 / nr=0 / decimate=1 / interlaced=0 / bluray_compat=0 / constrained_intra=0 / bframes=3 / b_pyramid=2 / b_adapt=1 / b_bias=0 / direct=1 / weightb=1 / open_gop=0 / weightp=2 / keyint=240 / keyint_min=24 / scenecut=40 / intra_refresh=0 / rc_lookahead=40 / rc=abr / mbtree=1 / bitrate=3500 / ratetol=1.0 / qcomp=0.60 / qpmin=0 / qpmax=69 / qpstep=4 / vbv_maxrate=62500 / vbv_bufsize=78125 / nal_hrd=none / filler=0 / ip_ratio=1.40 / aq=1:1.00
    Default                     : Yes
    Forced                      : No
    Color range                 : Limited
    Color primaries             : BT.709
    Transfer characteristics    : BT.709
    Matrix coefficients         : BT.709
    Statistics Tags Issue       : mkvmerge v10.0.0 ('To Drown In You') 64bit 2017-07-10 20:16:47 / mkvmerge v10.0.0 ('To Drown In You') 64bit 2017-07-10 20:16:47 / UTC 2017-07-09T22:12:39Z
    FromStats_BitRate           : 3495598
    FromStats_Duration          : 01:37:30.804000000
    FromStats_FrameCount        : 140279
    FromStats_StreamSize        : 2556507770

    Audio #1
    ID                          : 2
    Format                      : AC-3
    Format/Info                 : Audio Coding 3
    Format settings, Endianness : Big
    Codec ID                    : A_AC3
    Duration                    : 1 h 37 min
    Bit rate mode               : Constant
    Bit rate                    : 384 kb/s
    Channel(s)                  : 6 channels
    Channel positions           : Front: L C R, Side: L R, LFE
    Sampling rate               : 48.0 kHz
    Frame rate                  : 31.250 FPS (1536 spf)
    Bit depth                   : 16 bits
    Compression mode            : Lossy
    Delay relative to video     : -5 ms
    Stream size                 : 268 MiB (9%)
    Language                    : Spanish
    Service kind                : Complete Main
    Default                     : Yes
    Forced                      : No
    Statistics Tags Issue       : mkvmerge v10.0.0 ('To Drown In You') 64bit 2017-07-10 20:16:47 / mkvmerge v10.0.0 ('To Drown In You') 64bit 2017-07-10 20:16:47 / UTC 2017-07-09T22:12:39Z
    FromStats_BitRate           : 384000
    FromStats_Duration          : 01:37:30.880000000
    FromStats_FrameCount        : 182840
    FromStats_StreamSize        : 280842240

    Audio #2
    ID                          : 3
    Format                      : AC-3
    Format/Info                 : Audio Coding 3
    Format settings, Endianness : Big
    Codec ID                    : A_AC3
    Duration                    : 1 h 37 min
    Bit rate mode               : Constant
    Bit rate                    : 384 kb/s
    Channel(s)                  : 6 channels
    Channel positions           : Front: L C R, Side: L R, LFE
    Sampling rate               : 48.0 kHz
    Frame rate                  : 31.250 FPS (1536 spf)
    Bit depth                   : 16 bits
    Compression mode            : Lossy
    Delay relative to video     : -5 ms
    Stream size                 : 268 MiB (9%)
    Title                       : Surround
    Language                    : English
    Service kind                : Complete Main
    Default                     : No
    Forced                      : No
    Statistics Tags Issue       : mkvmerge v10.0.0 ('To Drown In You') 64bit 2017-07-10 20:16:47 / mkvmerge v10.0.0 ('To Drown In You') 64bit 2017-07-10 20:16:47 / UTC 2017-07-09T22:12:39Z
    FromStats_BitRate           : 384000
    FromStats_Duration          : 01:37:30.816000000
    FromStats_FrameCount        : 182838
    FromStats_StreamSize        : 280839168

    Text #1
    ID                          : 4
    Format                      : UTF-8
    Codec ID                    : S_TEXT/UTF8
    Codec ID/Info               : UTF-8 Plain Text
    Language                    : Spanish
    Default                     : No
    Forced                      : No
    Statistics Tags Issue       : mkvmerge v10.0.0 ('To Drown In You') 64bit 2017-07-10 20:16:47 / mkvmerge v10.0.0 ('To Drown In You') 64bit 2017-07-10 20:16:47 / UTC 2017-07-09T22:12:39Z
    FromStats_BitRate           : 59
    FromStats_Duration          : 01:36:29.311000000
    FromStats_FrameCount        : 1570
    FromStats_StreamSize        : 42726

    Text #2
    ID                          : 5
    Format                      : UTF-8
    Codec ID                    : S_TEXT/UTF8
    Codec ID/Info               : UTF-8 Plain Text
    Language                    : English
    Default                     : No
    Forced                      : No
    Statistics Tags Issue       : mkvmerge v10.0.0 ('To Drown In You') 64bit 2017-07-10 20:16:47 / mkvmerge v10.0.0 ('To Drown In You') 64bit 2017-07-10 20:16:47 / UTC 2017-07-09T22:12:39Z
    FromStats_BitRate           : 63
    FromStats_Duration          : 00:00:17.100000000
    FromStats_FrameCount        : 9
    FromStats_StreamSize        : 136

    Text #3
    ID                          : 6
    Format                      : UTF-8
    Codec ID                    : S_TEXT/UTF8
    Codec ID/Info               : UTF-8 Plain Text
    Language                    : Spanish
    Default                     : Yes
    Forced                      : No
    Statistics Tags Issue       : mkvmerge v10.0.0 ('To Drown In You') 64bit 2017-07-10 20:16:47 / mkvmerge v10.0.0 ('To Drown In You') 64bit 2017-07-10 20:16:47 / UTC 2017-07-09T22:12:39Z
    FromStats_BitRate           : 28
    FromStats_Duration          : 00:00:20.100000000
    FromStats_FrameCount        : 1
    FromStats_StreamSize        : 71

    Menu
    00:00:00.000                : :00:00:00.000
    00:03:45.976                : :00:03:45.892
    00:08:58.288                : :00:08:58.288
    00:11:45.955                : :00:11:45.914
    00:14:59.565                : :00:14:59.565
    00:19:38.260                : :00:19:38.219
    00:22:52.788                : :00:22:52.788
    00:28:27.289                : :00:28:27.247
    00:30:26.116                : :00:30:26.116
    00:33:45.482                : :00:33:45.482
    00:36:57.298                : :00:36:57.257
    00:39:18.356                : :00:39:18.356
    00:42:35.344                : :00:42:35.344
    00:46:20.695                : :00:46:20.611
    00:51:37.720                : :00:51:37.720
    00:53:25.285                : :00:53:25.285
    00:56:28.719                : :00:56:28.719
    00:59:35.405                : :00:59:35.405
    01:04:03.173                : :01:04:03.173
    01:08:15.758                : :01:08:15.758
    01:11:29.911                : :01:11:29.911
    01:16:25.247                : :01:16:25.247
    01:23:10.110                : :01:23:10.110
    01:27:37.002                : :01:27:36.960

  • Peso: 2.91 GB

Sinopsis

Descargar Un jefe en Pañales 1080p Latino. Aquí la historia del bebé del Cabo, o más bien el Templeton bebé, un bebé, en lugar de hardware para vivir una vida normal, se mantuvo en BabyCorp, donde vienen los bebés, y lo poco que es un gran líder para venir a la tierra para salvar a los niños porque los adultos son reemplazados por los cachorros. Así que este pequeño consejo ejecutivo, este gran líder, ha descubierto los planes malvados de PuppyCorp para vencer a los recién nacidos.

Pero el niño no sabía que su hermano Tim, descubrió sus planes y tratar de encontrar delante de sus padres; después de todo, el nuevo bebé absorbe todo el amor, el tiempo y la atención de sus padres. Pero las cosas se complican, y este bebé puede dejar de PuppyCorp jefe, necesitará la ayuda de Tim; Lo que nadie sabe es que la fuerte amistad que se forman, son inseparables.

 

Ficha técnica

  • Titulo original: The Boss Baby
  • Fecha de lanzamiento: 23-03-2017 (United States of America)
  • Director: Tom McGrath
  • Género: Animación, Comedia, Familia
  • Puntuación: 3.0 6 votos
  • Duración:
    1h 37m

Video trailer de la película

Enlaces de descarga

Descargar Un Jefe en Pañales (2017) 1080p Latino
Descargar

dpeliculas

Aportes de DPeliculasHDmega la pass es:dpeliculashdmega.org Aportes de CinemaniaHD la pass es:cinemaniahdd.com
Guardado en : Animación , Comedia , Familia

Películas relacionadas

  • Locos por las nueces 2 (2017) 1080p Latino

    2017
    Locos por las nueces 2 (2017) 1080p Latino

    0.0 1h 35m 2017

    Continuación de Operación cacahuete en la que conoceremos las nuevas aventuras de la malhumorada ardilla...

    Director: Callan Brunker

    Género: Animación

    Actores: Will Arnett

  • The Guardian Brothers (2016) WEB-DL 1080p Latino

    2016
    The Guardian Brothers (2016) WEB-DL 1080p Latino

    2.0 1 h 20 min 2016

    Hay una crisis en el mundo espiritual de China: ¡los humanos ya no creen en los dioses! Un Dios de la...

    Director: Gary Wang

    Género: Animación

    Actores: Xiaoxing Yi

  • Lo que de verdad importa (2017) Full 1080p Latino

    2017
    Lo que de verdad importa (2017) Full 1080p Latino

    0.0 1 h 48 min 2017

    Alex vive en Inglaterrra, trabaja arreglando aparatos eléctricos en una empresa que no va bien económicamente,...

    Director: Paco Arango

    Género: Castellano

    Actores: Suresh John

  • Jennifer’s Body (2009) UNRATED Full 1080p Latino

    2009
    Jennifer’s Body (2009) UNRATED Full 1080p Latino

    0.0 1 h 47 min 2009

    La guionista de "Juno" y la protagonista femenina de "Transformers" se juntan en un thriller en el que...

    Director: Karyn Kusama

    Género: Comedia

    Actores: Valerie Tian

Comentarios 6
  • Black - 26 mayo, 2017

    Saludos,

    Muchas gracias por subir esta pelicula con el audio latino line, la descargue sin problemas desde Uptobox

    Gracias, sigan adelante !

  • Matias - 21 mayo, 2017

    no me anda la contraseña para descomprimir

    • dpelis

      Administrador
      - 21 mayo, 2017

      estimdo. dpeliculashdmega.org

      escribalo estimado. Saludos