Un Jefe en Pañales (2017) Full 1080p Latino

4.816 vistas
1 estrella2 estrellas3 estrellas4 estrellas5 estrellas (4 votos, promedio: 3,00 de 5)
Cargando…

Información de Un Jefe en Pañales (2017) Full 1080p Latino

Datos de la película

  • Calidad: Full 1080p
  • Audio: Español Latino AC3 5.1 BLURAY - Ingles DTS 5.1 BLURAY
  • Subtitulos: Español Latino PGS - Ingles PGS
  • Resolución: 1920x1080p
  • Formato: MKV
  • Codec: H.264
  • Encoder: Dpelis
  • Mediainfo: Ver Ver
  • The.boss.baby.2017.full.1080p.Latino.mkv
    Format                      : Matroska
    Format version              : Version 4 / Version 2
    File size                   : 3.63 GiB
    Duration                    : 1 h 37 min
    Overall bit rate            : 5 335 kb/s
    Movie name                  : DPeliculasHDMega.ORG
    Encoded date                : UTC 2017-07-10 22:49:54 / UTC 2017-07-10T20:54:09Z
    Writing application         : mkvmerge v10.0.0 ('To Drown In You') 64bit
    Writing library             : libebml v1.3.4 + libmatroska v1.4.5 / Lavf57.7.2

    Video
    ID                          : 1
    Format                      : AVC
    Format/Info                 : Advanced Video Codec
    Format profile              : [email protected]
    Format settings, CABAC      : Yes
    Format settings, ReFrames   : 4 frames
    Codec ID                    : V_MPEG4/ISO/AVC
    Duration                    : 1 h 37 min
    Bit rate                    : 3 272 kb/s
    Width                       : 1 920 pixels
    Height                      : 1 080 pixels
    Display aspect ratio        : 16:9
    Frame rate mode             : Constant
    Frame rate                  : 23.976 (24000/1001) FPS
    Color space                 : YUV
    Chroma subsampling          : 4:2:0
    Bit depth                   : 8 bits
    Scan type                   : Progressive
    Bits/(Pixel*Frame)          : 0.066
    Stream size                 : 2.23 GiB (61%)
    Writing library             : x264 core 148 r2708 86b7198
    Encoding settings           : cabac=1 / ref=4 / deblock=1:0:0 / analyse=0x3:0x133 / me=esa / subme=10 / psy=1 / psy_rd=1.00:0.00 / mixed_ref=1 / me_range=24 / chroma_me=1 / trellis=2 / 8x8dct=1 / cqm=0 / deadzone=21,11 / fast_pskip=1 / chroma_qp_offset=-2 / threads=34 / lookahead_threads=5 / sliced_threads=0 / nr=0 / decimate=1 / interlaced=0 / bluray_compat=0 / constrained_intra=0 / bframes=8 / b_pyramid=2 / b_adapt=2 / b_bias=0 / direct=3 / weightb=1 / open_gop=0 / weightp=2 / keyint=240 / keyint_min=24 / scenecut=40 / intra_refresh=0 / rc_lookahead=60 / rc=crf / mbtree=1 / crf=20.0 / qcomp=0.60 / qpmin=0 / qpmax=69 / qpstep=4 / vbv_maxrate=62500 / vbv_bufsize=78125 / crf_max=0.0 / nal_hrd=none / filler=0 / ip_ratio=1.40 / aq=1:1.00
    Default                     : Yes
    Forced                      : No
    Color range                 : Limited
    Color primaries             : BT.709
    Transfer characteristics    : BT.709
    Matrix coefficients         : BT.709
    Statistics Tags Issue       : mkvmerge v10.0.0 ('To Drown In You') 64bit 2017-07-10 22:49:54 / mkvmerge v10.0.0 ('To Drown In You') 64bit 2017-07-10 22:49:54 / UTC 2017-07-10T20:54:09Z
    FromStats_BitRate           : 3347700
    FromStats_Duration          : 01:37:30.804000000
    FromStats_FrameCount        : 140279
    FromStats_StreamSize        : 2448342110

    Audio #1
    ID                          : 2
    Format                      : AC-3
    Format/Info                 : Audio Coding 3
    Format settings, Endianness : Big
    Codec ID                    : A_AC3
    Duration                    : 1 h 37 min
    Bit rate mode               : Constant
    Bit rate                    : 448 kb/s
    Channel(s)                  : 6 channels
    Channel positions           : Front: L C R, Side: L R, LFE
    Sampling rate               : 48.0 kHz
    Frame rate                  : 31.250 FPS (1536 spf)
    Bit depth                   : 16 bits
    Compression mode            : Lossy
    Stream size                 : 312 MiB (8%)
    Title                       : Surround
    Language                    : Spanish
    Service kind                : Complete Main
    Default                     : Yes
    Forced                      : No
    Statistics Tags Issue       : mkvmerge v10.0.0 ('To Drown In You') 64bit 2017-07-10 22:49:54 / mkvmerge v10.0.0 ('To Drown In You') 64bit 2017-07-10 22:49:54 / UTC 2017-07-10T20:54:09Z
    FromStats_BitRate           : 448000
    FromStats_Duration          : 01:37:30.848000000
    FromStats_FrameCount        : 182839
    FromStats_StreamSize        : 327647488

    Audio #2
    ID                          : 3
    Format                      : DTS
    Format/Info                 : Digital Theater Systems
    Format profile              : ES Matrix / Core
    Mode                        : 16
    Format settings, Endianness : Big
    Codec ID                    : A_DTS
    Duration                    : 1 h 37 min
    Bit rate mode               : Constant
    Bit rate                    : 1 509 kb/s
    Channel(s)                  : 7 channels / 6 channels
    Channel positions           : Front: L C R, Side: L R, Back: C, LFE / Front: L C R, Side: L R, LFE
    Sampling rate               : 48.0 kHz
    Frame rate                  : 93.750 FPS (512 spf)
    Bit depth                   : 24 bits
    Compression mode            : Lossy
    Stream size                 : 1.03 GiB (28%)
    Title                       : Surround
    Language                    : English
    Default                     : No
    Forced                      : No
    Statistics Tags Issue       : mkvmerge v10.0.0 ('To Drown In You') 64bit 2017-07-10 22:49:54 / mkvmerge v10.0.0 ('To Drown In You') 64bit 2017-07-10 22:49:54 / UTC 2017-07-10T20:54:09Z
    FromStats_BitRate           : 1508999
    FromStats_Duration          : 01:37:30.838000000
    FromStats_FrameCount        : 548516
    FromStats_StreamSize        : 1103614192

    Text #1
    ID                          : 4
    Format                      : PGS
    Muxing mode                 : zlib
    Codec ID                    : S_HDMV/PGS
    Codec ID/Info               : Picture based subtitle format used on BDs/HD-DVDs
    Language                    : Spanish
    Default                     : No
    Forced                      : No
    Statistics Tags Issue       : mkvmerge v10.0.0 ('To Drown In You') 64bit 2017-07-10 22:49:54 / mkvmerge v10.0.0 ('To Drown In You') 64bit 2017-07-10 22:49:54 / UTC 2017-07-10T20:54:09Z
    FromStats_BitRate           : 11837
    FromStats_Duration          : 01:36:31.202000000
    FromStats_FrameCount        : 3150
    FromStats_StreamSize        : 8568966

    Text #2
    ID                          : 5
    Format                      : PGS
    Muxing mode                 : zlib
    Codec ID                    : S_HDMV/PGS
    Codec ID/Info               : Picture based subtitle format used on BDs/HD-DVDs
    Language                    : English
    Default                     : No
    Forced                      : No
    Statistics Tags Issue       : mkvmerge v10.0.0 ('To Drown In You') 64bit 2017-07-10 22:49:54 / mkvmerge v10.0.0 ('To Drown In You') 64bit 2017-07-10 22:49:54 / UTC 2017-07-10T20:54:09Z
    FromStats_BitRate           : 15778
    FromStats_Duration          : 01:36:29.492000000
    FromStats_FrameCount        : 4025
    FromStats_StreamSize        : 11418896

    Menu
    00:00:00.000                : :Chapter 1
    00:03:45.892                : :Chapter 2
    00:08:58.288                : :Chapter 3
    00:11:45.914                : :Chapter 4
    00:14:59.565                : :Chapter 5
    00:19:38.219                : :Chapter 6
    00:22:52.788                : :Chapter 7
    00:28:27.247                : :Chapter 8
    00:30:26.116                : :Chapter 9
    00:33:45.482                : :Chapter 10
    00:36:57.257                : :Chapter 11
    00:39:18.356                : :Chapter 12
    00:42:35.344                : :Chapter 13
    00:46:20.611                : :Chapter 14
    00:51:37.720                : :Chapter 15
    00:53:25.285                : :Chapter 16
    00:56:28.719                : :Chapter 17
    00:59:35.405                : :Chapter 18
    01:04:03.173                : :Chapter 19
    01:08:15.758                : :Chapter 20
    01:11:29.911                : :Chapter 21
    01:16:25.247                : :Chapter 22
    01:23:10.110                : :Chapter 23
    01:27:36.960                : :Chapter 24

  • Peso: 3.63 GB

Sinopsis

Un Jefe en Pañales hd Latino, es una comedia familiar que se centra en un bebé muy maduro para su edad y Tim, el hermano de siete años es celoso de él. Tim intenta recuperar el amor de sus padres, pero cuando descubre una conspiración secreta CEO Co. cachorro reclamando destruir el amor en el mundo y que su hermano pequeño es en realidad un agente encubierto, los dos deben unirse como una verdadera familia para restaurar el orden en el mundo y demostrar que el amor es una fuerza indestructible.

Ficha técnica

Imágenes, Capturas de la película

Video trailer de la película

Enlaces de descarga

Descargar Un Jefe en Pañales (2017) Full 1080p Latino
Descargar

dpeliculas

Aportes de DPeliculasHDmega la pass es:dpeliculashdmega.org Aportes de CinemaniaHD la pass es:cinemaniahdd.com

PelícuDelas relacionadas

  • The Resurrection of Gavin Stone (2017) 1080p Latino

    2017
    The Resurrection of Gavin Stone (2017) 1080p Latino

    0.0 1 h 31 min 2017

    Una antigua estrella infantil se ve obligada a prestar un servicio comunitario en una gran iglesia de...

    Director: Dallas Jenkins

    Género: Comedia

    Actores: Tim Frank

  • Regreso al futuro III (1990) Full 1080p Latino

    1990
    Regreso al futuro III (1990) Full 1080p Latino

    0.0 1 h 58 min 1990

    Doc tiene el coche-máquina del tiempo averiado, y está prisionero en la época del salvaje oeste. Por...

    Director: Robert Zemeckis

    Género: Aventura

    Actores: Wendie Jo Sperber

  • Regreso al futuro II (1989) Full 1080p Latino

    1989
    Regreso al futuro II (1989) Full 1080p Latino

    0.0 1h 45m 1989

    Aunque a Marty McFly todavía le falta tiempo para asimilar el hecho de estar viviendo dentro de la familia...

    Director: Robert Zemeckis

    Género: Aventura

    Actores: Wesley Mann

  • Regreso al futuro (1985) Full 1080p Latino

    1985
    Regreso al futuro (1985) Full 1080p Latino

    5.0 1 h 56 min 1985

    Marty McFly es un adolescente amigo de Doc, un científico a los que todos menos él toman por chiflado....

    Director: Robert Zemeckis

    Género: Aventura

    Actores: Will Hare

  • Un cigüeña en Apuros (2017) 1080p Latino

    2017
    Un cigüeña en Apuros (2017) 1080p Latino

    0.0 1h 25m 2017

    Descargar Un cigüeña en Apuros hd latino Una pelicula familiar,  Richard –un gorrión– ha sido...

    Director: Toby Genkel

    Género: Animación

    Actores: Tilman Döbler

Comentarios 10
  • gabo - 23 julio, 2017

    ninguna peli vale descargar sale error 404. por fa arreglen. ninguna peli se puede descargar

    • dpelis

      Administrador
      - 24 julio, 2017

      borre cache porfavor

  • Miguel Angel - 18 julio, 2017

    Estimados Amigos
    No se si podrian por favor habilitar nuevamente MEGA para poder descargar con el Megadowloader, hasta el momento yo y varioas amigos q vemos diariamente su pagina no hemos tenido problemas con este servidor.
    Vean esa posibilidad por favor, si no se puede ni modo recurrimos a otro servidor…..Gracias… son lo maximo…

    • dpelis

      Administrador
      - 18 julio, 2017

      usen google drive mejor que mega

      • Miguel Ángel - 20 julio, 2017

        Ok muchas gracias
        Entonces Google drive

  • Jhefferson - 13 julio, 2017

    Muvhas gracias por este gran aporte esta genial tanto la calidad de audio como video “Gran Pagina”

  • Pablo Meza Abello - 11 julio, 2017

    me dice, haz click en un anuncio y espera 30 segundo, y podras ver los link durante 48 horas.. pero no me aparece ningun anuncio y si tengo desbloqueado el adblock

  • Héctor Rodrigo - 11 julio, 2017

    Gracias por la película.
    PD: Cuando sale el BD Español Latino de: Kong: Isla Calavera (Carátula Gris)

    • dpelis

      Administrador
      - 12 julio, 2017

      que lanze USA bluray