Un hombre llamado Ove (2015) 1080p Latino

980 vistas
1 estrella2 estrellas3 estrellas4 estrellas5 estrellas (Ninguna valoración todavía)
Cargando…

Información de Un hombre llamado Ove (2015) 1080p Latino

Datos de la película

  • Calidad: 1080p
  • Audio: Español Latino AC3 2.0 iTUNES - Ingles AC3 5.1 BLURAY
  • Subtitulos: Español Latino SRT
  • Resolución: 1920x804p
  • Formato: MKV
  • Codec: H.264
  • Encoder: Dpelis
  • Mediainfo: Ver Ver
  • A Man Called   Ove (2015) 1080p Latino.mkv
    Format                      : Matroska
    Format version              : Version 4 / Version 2
    File size                   : 3.30 GiB
    Duration                    : 1 h 55 min
    Overall bit rate            : 4 077 kb/s
    Movie name                  : DPeliculasHDMega.ORG
    Encoded date                : UTC 2017-09-28 14:07:29 / UTC 2017-09-28T12:23:14Z
    Writing application         : mkvmerge v10.0.0 ('To Drown In You') 64bit
    Writing library             : libebml v1.3.4 + libmatroska v1.4.5 / Lavf57.7.2

    Video
    ID                          : 1
    Format                      : AVC
    Format/Info                 : Advanced Video Codec
    Format profile              : [email protected]
    Format settings, CABAC      : Yes
    Format settings, RefFrames  : 4 frames
    Codec ID                    : V_MPEG4/ISO/AVC
    Duration                    : 1 h 55 min
    Bit rate                    : 3 500 kb/s
    Width                       : 1 920 pixels
    Height                      : 804 pixels
    Display aspect ratio        : 2.40:1
    Frame rate mode             : Constant
    Frame rate                  : 24.000 FPS
    Color space                 : YUV
    Chroma subsampling          : 4:2:0
    Bit depth                   : 8 bits
    Scan type                   : Progressive
    Bits/(Pixel*Frame)          : 0.094
    Stream size                 : 2.77 GiB (84%)
    Writing library             : x264 core 148 r2708 86b7198
    Encoding settings           : cabac=1 / ref=3 / deblock=1:0:0 / analyse=0x3:0x113 / me=hex / subme=7 / psy=1 / psy_rd=1.00:0.00 / mixed_ref=1 / me_range=16 / chroma_me=1 / trellis=1 / 8x8dct=1 / cqm=0 / deadzone=21,11 / fast_pskip=1 / chroma_qp_offset=-2 / threads=12 / lookahead_threads=2 / sliced_threads=0 / nr=0 / decimate=1 / interlaced=0 / bluray_compat=0 / constrained_intra=0 / bframes=3 / b_pyramid=2 / b_adapt=1 / b_bias=0 / direct=1 / weightb=1 / open_gop=0 / weightp=2 / keyint=240 / keyint_min=24 / scenecut=40 / intra_refresh=0 / rc_lookahead=40 / rc=2pass / mbtree=1 / bitrate=3500 / ratetol=1.0 / qcomp=0.60 / qpmin=0 / qpmax=69 / qpstep=4 / cplxblur=20.0 / qblur=0.5 / vbv_maxrate=62500 / vbv_bufsize=78125 / nal_hrd=none / filler=0 / ip_ratio=1.40 / aq=1:1.00
    Default                     : Yes
    Forced                      : No
    Color range                 : Limited
    Color primaries             : BT.709
    Transfer characteristics    : BT.709
    Matrix coefficients         : BT.709
    Statistics Tags Issue       : mkvmerge v10.0.0 ('To Drown In You') 64bit 2017-09-28 14:07:29 / mkvmerge v10.0.0 ('To Drown In You') 64bit 2017-09-28 14:07:29 / UTC 2017-09-28T12:23:14Z
    FromStats_BitRate           : 3498578
    FromStats_Duration          : 01:55:56.000000000
    FromStats_FrameCount        : 166944
    FromStats_StreamSize        : 3042014051

    Audio #1
    ID                          : 2
    Format                      : AC-3
    Format/Info                 : Audio Coding 3
    Format settings, Endianness : Big
    Codec ID                    : A_AC3
    Duration                    : 1 h 55 min
    Bit rate mode               : Constant
    Bit rate                    : 192 kb/s
    Channel(s)                  : 2 channels
    Channel positions           : Front: L R
    Sampling rate               : 48.0 kHz
    Frame rate                  : 31.250 FPS (1536 SPF)
    Bit depth                   : 16 bits
    Compression mode            : Lossy
    Delay relative to video     : -5 ms
    Stream size                 : 159 MiB (5%)
    Language                    : Spanish
    Service kind                : Complete Main
    Default                     : Yes
    Forced                      : No
    Statistics Tags Issue       : mkvmerge v10.0.0 ('To Drown In You') 64bit 2017-09-28 14:07:29 / mkvmerge v10.0.0 ('To Drown In You') 64bit 2017-09-28 14:07:29 / UTC 2017-09-28T12:23:14Z
    FromStats_BitRate           : 192000
    FromStats_Duration          : 01:55:54.016000000
    FromStats_FrameCount        : 217313
    FromStats_StreamSize        : 166896384

    Audio #2
    ID                          : 3
    Format                      : AC-3
    Format/Info                 : Audio Coding 3
    Format settings, Endianness : Big
    Codec ID                    : A_AC3
    Duration                    : 1 h 55 min
    Bit rate mode               : Constant
    Bit rate                    : 384 kb/s
    Channel(s)                  : 6 channels
    Channel positions           : Front: L C R, Side: L R, LFE
    Sampling rate               : 48.0 kHz
    Frame rate                  : 31.250 FPS (1536 SPF)
    Bit depth                   : 16 bits
    Compression mode            : Lossy
    Delay relative to video     : -5 ms
    Stream size                 : 318 MiB (9%)
    Title                       : Surround
    Language                    : Swedish
    Service kind                : Complete Main
    Default                     : No
    Forced                      : No
    Statistics Tags Issue       : mkvmerge v10.0.0 ('To Drown In You') 64bit 2017-09-28 14:07:29 / mkvmerge v10.0.0 ('To Drown In You') 64bit 2017-09-28 14:07:29 / UTC 2017-09-28T12:23:14Z
    FromStats_BitRate           : 384000
    FromStats_Duration          : 01:55:54.976000000
    FromStats_FrameCount        : 217343
    FromStats_StreamSize        : 333838848

    Text
    ID                          : 4
    Format                      : UTF-8
    Codec ID                    : S_TEXT/UTF8
    Codec ID/Info               : UTF-8 Plain Text
    Language                    : Spanish
    Default                     : Yes
    Forced                      : No
    Statistics Tags Issue       : mkvmerge v10.0.0 ('To Drown In You') 64bit 2017-09-28 14:07:29 / mkvmerge v10.0.0 ('To Drown In You') 64bit 2017-09-28 14:07:29 / UTC 2017-09-28T12:23:14Z
    FromStats_BitRate           : 58
    FromStats_Duration          : 01:55:07.541000000
    FromStats_FrameCount        : 1216
    FromStats_StreamSize        : 50824

    Menu
    00:00:00.000                : :00:00:00.000
    00:11:15.917                : :00:11:15.917
    00:20:39.500                : :00:20:39.500
    00:30:47.250                : :00:30:47.250
    00:40:18.083                : :00:40:18.083
    00:48:14.083                : :00:48:14.083
    00:57:56.792                : :00:57:56.792
    01:08:13.625                : :01:08:13.625
    01:19:45.542                : :01:19:45.542
    01:29:12.750                : :01:29:12.750
    01:42:48.000                : :01:42:48.000
    01:52:05.333                : :01:52:05.333

  • Peso: 3.30 GB

Sinopsis

Ove (Rolf Lassgård), de 59 años, es un hombre gruñón que ha perdido la fe en todo el mundo, incluido en él mismo; hasta que su visión negativa del hombre y la sociedad es puesta a prueba por una familia que se muda a la casa de al lado.

Ficha técnica

Imágenes, Capturas de la película

Video trailer de la película

Enlaces de descarga

Descargar Un hombre llamado Ove (2015) 1080p Latino
Descargar

dpeliculas

Aportes de DPeliculasHDmega la pass es:dpeliculashdmega.org Aportes de CinemaniaHD la pass es:cinemaniahdd.com
Guardado en : Comedia , Drama

PelícuDelas relacionadas

  • La guerra del planeta de los simios (2017) Full 1080p Latino

    2017
    La guerra del planeta de los simios (2017) Full 1080p Latino

    5.0 2 h 20 min 2017

    César (Andy Serkis) jura que no comenzó la guerra. Pero él y su nación de simios genéticamente evolucionados...

    Director: Matt Reeves

    Género: Ciencia ficción

    Actores: Woody Harrelson

  • La vida de Pi (2012) 2160p 4K UHD Latino-Ingles

    2012
    La vida de Pi (2012) 2160p 4K UHD Latino-Ingles

    0.0 2h 7m 2012

    Descargar gratis La vida de Pi (2012) 2160p 4K UHD Latino-Ingles.  Pi Patel es un muchacho cuyo padre...

    Director: Ang Lee

    Género: 4K HDR

    Actores: Wang Bo-Chieh

  • Arrow (2017) Temporada 6 WEBDL 1080p Subtitulada

    2012
    Arrow (2017) Temporada 6 WEBDL 1080p Subtitulada

    0.0 0h 42m 2012

    Con el futuro del equipo pendiendo de un hilo, Arrow le dio una nueva definición a la frase “explotar...

    Director: Marc Guggenheim

    Género: Acción

    Actores: Willa Holland

  • The Meyerowitz Stories (2017) 1080p Latino

    2017
    The Meyerowitz Stories (2017) 1080p Latino

    0.0 1 h 52 min 2017

    Los tres hijos, ya adultos, de un arisco artista neoyorquino se enfrentan a la difícil relación que...

    Director: Noah Baumbach

    Género: Comedia

    Actores: Victor Cruz

Comentarios 0