Un golpe con estilo (2017) 1080p Latino

2.603 vistas
1 estrella2 estrellas3 estrellas4 estrellas5 estrellas (Ninguna valoración todavía)
Cargando…

Información de Un golpe con estilo (2017) 1080p Latino

Datos de la película

  • Calidad: WEBDL
  • Audio: Español Latino AC3 5.1 DVD - Ingles AC3 5.1 BLURAY
  • Subtitulos: Español Latino SRT - Ingles SRT
  • Resolución: 1920x800p
  • Formato: MKV
  • Codec: H.264
  • Encoder: Dpelis
  • Mediainfo: Ver Ver
  •  

    Going in Style (2017) 1080p latino.mkv
    Format                      : Matroska
    Format version              : Version 4 / Version 2
    File size                   : 2.84 GiB
    Duration                    : 1 h 36 min
    Overall bit rate            : 4 211 kb/s
    Movie name                  : DPeliculasHDMega.ORG
    Encoded date                : UTC 2017-07-23 16:00:57 / UTC 2017-07-23T01:53:24Z
    Writing application         : mkvmerge v10.0.0 ('To Drown In You') 64bit
    Writing library             : libebml v1.3.4 + libmatroska v1.4.5 / Lavf57.7.2

    Video
    ID                          : 1
    Format                      : AVC
    Format/Info                 : Advanced Video Codec
    Format profile              : [email protected]
    Format settings, CABAC      : Yes
    Format settings, ReFrames   : 4 frames
    Codec ID                    : V_MPEG4/ISO/AVC
    Duration                    : 1 h 36 min
    Bit rate                    : 3 500 kb/s
    Width                       : 1 920 pixels
    Height                      : 800 pixels
    Display aspect ratio        : 2.40:1
    Frame rate mode             : Constant
    Frame rate                  : 23.976 (24000/1001) FPS
    Color space                 : YUV
    Chroma subsampling          : 4:2:0
    Bit depth                   : 8 bits
    Scan type                   : Progressive
    Bits/(Pixel*Frame)          : 0.095
    Stream size                 : 2.26 GiB (80%)
    Writing library             : x264 core 148 r2708 86b7198
    Encoding settings           : cabac=1 / ref=3 / deblock=1:0:0 / analyse=0x3:0x113 / me=hex / subme=7 / psy=1 / psy_rd=1.00:0.00 / mixed_ref=1 / me_range=16 / chroma_me=1 / trellis=1 / 8x8dct=1 / cqm=0 / deadzone=21,11 / fast_pskip=1 / chroma_qp_offset=-2 / threads=12 / lookahead_threads=2 / sliced_threads=0 / nr=0 / decimate=1 / interlaced=0 / bluray_compat=0 / constrained_intra=0 / bframes=3 / b_pyramid=2 / b_adapt=1 / b_bias=0 / direct=1 / weightb=1 / open_gop=0 / weightp=2 / keyint=240 / keyint_min=24 / scenecut=40 / intra_refresh=0 / rc_lookahead=40 / rc=abr / mbtree=1 / bitrate=3500 / ratetol=1.0 / qcomp=0.60 / qpmin=0 / qpmax=69 / qpstep=4 / vbv_maxrate=62500 / vbv_bufsize=78125 / nal_hrd=none / filler=0 / ip_ratio=1.40 / aq=1:1.00
    Default                     : Yes
    Forced                      : No
    Color range                 : Limited
    Color primaries             : BT.709
    Transfer characteristics    : BT.709
    Matrix coefficients         : BT.709
    Statistics Tags Issue       : mkvmerge v10.0.0 ('To Drown In You') 64bit 2017-07-23 16:00:57 / mkvmerge v10.0.0 ('To Drown In You') 64bit 2017-07-23 16:00:57 / UTC 2017-07-23T01:53:24Z
    FromStats_BitRate           : 3440760
    FromStats_Duration          : 01:36:25.864000000
    FromStats_FrameCount        : 138722
    FromStats_StreamSize        : 2488471838

    Audio #1
    ID                          : 2
    Format                      : AC-3
    Format/Info                 : Audio Coding 3
    Format settings, Endianness : Big
    Codec ID                    : A_AC3
    Duration                    : 1 h 36 min
    Bit rate mode               : Constant
    Bit rate                    : 384 kb/s
    Channel(s)                  : 6 channels
    Channel positions           : Front: L C R, Side: L R, LFE
    Sampling rate               : 48.0 kHz
    Frame rate                  : 31.250 FPS (1536 spf)
    Bit depth                   : 16 bits
    Compression mode            : Lossy
    Delay relative to video     : -5 ms
    Stream size                 : 265 MiB (9%)
    Title                       : Surround
    Language                    : Spanish
    Service kind                : Complete Main
    Default                     : Yes
    Forced                      : No
    Statistics Tags Issue       : mkvmerge v10.0.0 ('To Drown In You') 64bit 2017-07-23 16:00:57 / mkvmerge v10.0.0 ('To Drown In You') 64bit 2017-07-23 16:00:57 / UTC 2017-07-23T01:53:24Z
    FromStats_BitRate           : 384000
    FromStats_Duration          : 01:36:25.920000000
    FromStats_FrameCount        : 180810
    FromStats_StreamSize        : 277724160

    Audio #2
    ID                          : 3
    Format                      : AC-3
    Format/Info                 : Audio Coding 3
    Format settings, Endianness : Big
    Codec ID                    : A_AC3
    Duration                    : 1 h 36 min
    Bit rate mode               : Constant
    Bit rate                    : 384 kb/s
    Channel(s)                  : 6 channels
    Channel positions           : Front: L C R, Side: L R, LFE
    Sampling rate               : 48.0 kHz
    Frame rate                  : 31.250 FPS (1536 spf)
    Bit depth                   : 16 bits
    Compression mode            : Lossy
    Delay relative to video     : -5 ms
    Stream size                 : 265 MiB (9%)
    Title                       : Surround
    Language                    : English
    Service kind                : Complete Main
    Default                     : No
    Forced                      : No
    Statistics Tags Issue       : mkvmerge v10.0.0 ('To Drown In You') 64bit 2017-07-23 16:00:57 / mkvmerge v10.0.0 ('To Drown In You') 64bit 2017-07-23 16:00:57 / UTC 2017-07-23T01:53:24Z
    FromStats_BitRate           : 384000
    FromStats_Duration          : 01:36:25.824000000
    FromStats_FrameCount        : 180807
    FromStats_StreamSize        : 277719552

    Text #1
    ID                          : 4
    Format                      : UTF-8
    Codec ID                    : S_TEXT/UTF8
    Codec ID/Info               : UTF-8 Plain Text
    Language                    : Spanish
    Default                     : No
    Forced                      : No
    Statistics Tags Issue       : mkvmerge v10.0.0 ('To Drown In You') 64bit 2017-07-23 16:00:57 / mkvmerge v10.0.0 ('To Drown In You') 64bit 2017-07-23 16:00:57 / UTC 2017-07-23T01:53:24Z
    FromStats_BitRate           : 66
    FromStats_Duration          : 01:29:13.771000000
    FromStats_FrameCount        : 1470
    FromStats_StreamSize        : 44292

    Text #2
    ID                          : 5
    Format                      : UTF-8
    Codec ID                    : S_TEXT/UTF8
    Codec ID/Info               : UTF-8 Plain Text
    Title                       : FORZADOS
    Language                    : Spanish
    Default                     : Yes
    Forced                      : No
    Statistics Tags Issue       : mkvmerge v10.0.0 ('To Drown In You') 64bit 2017-07-23 16:00:57 / mkvmerge v10.0.0 ('To Drown In You') 64bit 2017-07-23 16:00:57 / UTC 2017-07-23T01:53:24Z
    FromStats_BitRate           : 2
    FromStats_Duration          : 01:18:14.402000000
    FromStats_FrameCount        : 50
    FromStats_StreamSize        : 1255

    Text #3
    ID                          : 6
    Format                      : UTF-8
    Codec ID                    : S_TEXT/UTF8
    Codec ID/Info               : UTF-8 Plain Text
    Language                    : English
    Default                     : No
    Forced                      : No
    Statistics Tags Issue       : mkvmerge v10.0.0 ('To Drown In You') 64bit 2017-07-23 16:00:57 / mkvmerge v10.0.0 ('To Drown In You') 64bit 2017-07-23 16:00:57 / UTC 2017-07-23T01:53:24Z
    FromStats_BitRate           : 65
    FromStats_Duration          : 01:29:13.430000000
    FromStats_FrameCount        : 1437
    FromStats_StreamSize        : 43593

    Menu
    00:00:00.000                : :Chapter 1
    00:10:03.353                : :Chapter 2
    00:20:02.368                : :Chapter 3
    00:28:28.624                : :Chapter 4
    00:39:42.380                : :Chapter 5
    00:50:58.389                : :Chapter 6
    00:58:31.717                : :Chapter 7
    01:09:50.311                : :Chapter 8
    01:22:05.671                : :Chapter 9
    01:30:31.176                : :Chapter 10

     

  • Peso: 2.84 GB

Sinopsis

Descarga Un golpe con estilo (2017) hd Latino tambien conocida Going in Style hd Los ganadores del Oscar Morgan Freeman, Michael Caine y Alan Arkin hacen equipo como los amigos de toda la vida Willie, Joe y Al, quienes deciden volver del retiro y dejar su vida libre de emociones fuertes, por primera vez en su vida, cuando sus fondos de pensión se vuelven pérdida en las cuentas de la empresa, en la comedia de Zack Braff “Un Golpe Con Estilo”. Desesperados por poder pagar sus deudas y no fallarle a sus seres queridos, los tres arriesgan todo al embarcarse en una apuesta arriesgada para recuperar su dinero del mismo banco que se los quitó en un principio

Ficha técnica

  • Titulo original: Going in Style
  • Fecha de lanzamiento: 06-04-2017 (United States of America)
  • Director: Zach Braff
  • Género: Comedia, Crimen, Drama
  • Puntuación: 0.0 0 votos
  • Duración:
    1h 37m

Imágenes, Capturas de la película

Video trailer de la película

Enlaces de descarga

Descargar Un golpe con estilo (2017) 1080p Latino
Descargar

dpeliculas

Aportes de DPeliculasHDmega la pass es:dpeliculashdmega.org Aportes de CinemaniaHD la pass es:cinemaniahdd.com
Guardado en : Comedia , Crimen , Drama

PelícuDelas relacionadas

  • Gold la gran estafa (2016) 1080p Latino

    2016
    Gold la gran estafa (2016) 1080p Latino

    0.0 2h 1m 2016

    Descarga Gold hd latino, también conocida La gran estafa 1080p latino Kenny Wells es un fracasado hombre...

    Director: Stephen Gaghan

    Género: Aventura

    Actores: Yothin Mapobphun

  • Juego de Tronos (2016) Temporada 6 Full Latino

    2011/03/17
    Juego de Tronos (2016) Temporada 6 Full Latino

    0.0 60 Min. 2011/03/17

    Descargar gratis Juego de Tronos (2016) Temporada 6 Full Latino Sinopsis capitulo 1: Jon Nieve está...

    Director: David Benioff

    Género: Drama

    Actores: Sophie Turner

  • Juegos de Tronos (2015) Temporada 5 Full Latino

    2011/03/17
    Juegos de Tronos (2015) Temporada 5 Full Latino

    5.0 60 Min. 2011/03/17

    Descargar gratis Juegos de Tronos (2015) Temporada 5 Full Latino  Sinopsis captitulo 1: La reina Cersei...

    Director: David Benioff

    Género: Drama

    Actores: Sophie Turner

  • The Ring 2 (2005) WEB-DL 1080p Latino

    2005
    The Ring 2 (2005) WEB-DL 1080p Latino

    0.0 1h 51m 2005

    Descargar gratis The Ring 2 (2005) WEB-DL 1080p Latino. Para escapar de una vida que era una auténtica...

    Director: Trudy Ramirez

    Género: Drama

    Actores: Sissy Spacek

Comentarios 2
  • jhonny - 23 Julio, 2017

    administrador cuando suben la peliculas de vico c Vico C: La vida del filósofo (2017

    • dpelis

      Administrador
      - 23 Julio, 2017

      es una pelicula de puerto rico no creo este en hd