Un don excepcional (2017) Full 1080p Latino

2.081 vistas
1 estrella2 estrellas3 estrellas4 estrellas5 estrellas (2 votos, promedio: 5,00 de 5)
Cargando…

Información de Un don excepcional (2017) Full 1080p Latino

Datos de la película

  • Calidad: Full 1080p
  • Audio: Español Latino AC3 5.1 BLURAY - Ingles DTS 5.1 BLURAY
  • Subtitulos: Español Latino PGS - Ingles PGS
  • Resolución: 1920x1080p
  • Formato: MKV
  • Codec: H.264
  • Encoder: Dpelis
  • Mediainfo: Ver Ver
  • Gifted.2017.full.1080p.Latino.mkv
    Format                      : Matroska
    Format version              : Version 4 / Version 2
    File size                   : 4.36 GiB
    Duration                    : 1 h 41 min
    Overall bit rate            : 6 164 kb/s
    Movie name                  : DPeliculasHDMega.ORG
    Encoded date                : UTC 2017-07-12 01:53:34 / UTC 2017-07-11T21:48:56Z
    Writing application         : mkvmerge v10.0.0 ('To Drown In You') 64bit
    Writing library             : libebml v1.3.4 + libmatroska v1.4.5 / Lavf57.7.2

    Video
    ID                          : 1
    Format                      : AVC
    Format/Info                 : Advanced Video Codec
    Format profile              : [email protected]
    Format settings, CABAC      : Yes
    Format settings, ReFrames   : 4 frames
    Codec ID                    : V_MPEG4/ISO/AVC
    Duration                    : 1 h 41 min
    Bit rate                    : 4 085 kb/s
    Width                       : 1 920 pixels
    Height                      : 1 080 pixels
    Display aspect ratio        : 16:9
    Frame rate mode             : Constant
    Frame rate                  : 23.976 (24000/1001) FPS
    Color space                 : YUV
    Chroma subsampling          : 4:2:0
    Bit depth                   : 8 bits
    Scan type                   : Progressive
    Bits/(Pixel*Frame)          : 0.082
    Stream size                 : 2.89 GiB (66%)
    Writing library             : x264 core 148 r2708 86b7198
    Encoding settings           : cabac=1 / ref=4 / deblock=1:0:0 / analyse=0x3:0x133 / me=esa / subme=10 / psy=1 / psy_rd=1.00:0.00 / mixed_ref=1 / me_range=24 / chroma_me=1 / trellis=2 / 8x8dct=1 / cqm=0 / deadzone=21,11 / fast_pskip=1 / chroma_qp_offset=-2 / threads=34 / lookahead_threads=5 / sliced_threads=0 / nr=0 / decimate=1 / interlaced=0 / bluray_compat=0 / constrained_intra=0 / bframes=8 / b_pyramid=2 / b_adapt=2 / b_bias=0 / direct=3 / weightb=1 / open_gop=0 / weightp=2 / keyint=240 / keyint_min=24 / scenecut=40 / intra_refresh=0 / rc_lookahead=60 / rc=crf / mbtree=1 / crf=20.0 / qcomp=0.60 / qpmin=0 / qpmax=69 / qpstep=4 / vbv_maxrate=62500 / vbv_bufsize=78125 / crf_max=0.0 / nal_hrd=none / filler=0 / ip_ratio=1.40 / aq=1:1.00
    Default                     : Yes
    Forced                      : No
    Color range                 : Limited
    Color primaries             : BT.709
    Transfer characteristics    : BT.709
    Matrix coefficients         : BT.709
    Statistics Tags Issue       : mkvmerge v10.0.0 ('To Drown In You') 64bit 2017-07-12 01:53:34 / mkvmerge v10.0.0 ('To Drown In You') 64bit 2017-07-12 01:53:34 / UTC 2017-07-11T21:48:56Z
    FromStats_BitRate           : 4167625
    FromStats_Duration          : 01:41:10.064000000
    FromStats_FrameCount        : 145536
    FromStats_StreamSize        : 3162218884

    Audio #1
    ID                          : 2
    Format                      : AC-3
    Format/Info                 : Audio Coding 3
    Format settings, Endianness : Big
    Codec ID                    : A_AC3
    Duration                    : 1 h 41 min
    Bit rate mode               : Constant
    Bit rate                    : 448 kb/s
    Channel(s)                  : 6 channels
    Channel positions           : Front: L C R, Side: L R, LFE
    Sampling rate               : 48.0 kHz
    Frame rate                  : 31.250 FPS (1536 spf)
    Bit depth                   : 16 bits
    Compression mode            : Lossy
    Delay relative to video     : 28 ms
    Stream size                 : 324 MiB (7%)
    Title                       : Surround
    Language                    : Spanish
    Service kind                : Complete Main
    Default                     : Yes
    Forced                      : No
    Statistics Tags Issue       : mkvmerge v10.0.0 ('To Drown In You') 64bit 2017-07-12 01:53:34 / mkvmerge v10.0.0 ('To Drown In You') 64bit 2017-07-12 01:53:34 / UTC 2017-07-11T21:48:56Z
    FromStats_BitRate           : 448000
    FromStats_Duration          : 01:41:10.080000000
    FromStats_FrameCount        : 189690
    FromStats_StreamSize        : 339924480

    Audio #2
    ID                          : 3
    Format                      : DTS
    Format/Info                 : Digital Theater Systems
    Mode                        : 16
    Format settings, Endianness : Big
    Codec ID                    : A_DTS
    Duration                    : 1 h 41 min
    Bit rate mode               : Constant
    Bit rate                    : 1 509 kb/s
    Channel(s)                  : 6 channels
    Channel positions           : Front: L C R, Side: L R, LFE
    Sampling rate               : 48.0 kHz
    Frame rate                  : 93.750 FPS (512 spf)
    Bit depth                   : 24 bits
    Compression mode            : Lossy
    Stream size                 : 1.07 GiB (24%)
    Title                       : Surround
    Language                    : English
    Default                     : No
    Forced                      : No
    Statistics Tags Issue       : mkvmerge v10.0.0 ('To Drown In You') 64bit 2017-07-12 01:53:34 / mkvmerge v10.0.0 ('To Drown In You') 64bit 2017-07-12 01:53:34 / UTC 2017-07-11T21:48:56Z
    FromStats_BitRate           : 1508999
    FromStats_Duration          : 01:41:10.102000000
    FromStats_FrameCount        : 569072
    FromStats_StreamSize        : 1144972864

    Text #1
    ID                          : 4
    Format                      : PGS
    Muxing mode                 : zlib
    Codec ID                    : S_HDMV/PGS
    Codec ID/Info               : Picture based subtitle format used on BDs/HD-DVDs
    Language                    : Spanish
    Default                     : No
    Forced                      : No
    Statistics Tags Issue       : mkvmerge v10.0.0 ('To Drown In You') 64bit 2017-07-12 01:53:34 / mkvmerge v10.0.0 ('To Drown In You') 64bit 2017-07-12 01:53:34 / UTC 2017-07-11T21:48:56Z
    FromStats_BitRate           : 17188
    FromStats_Duration          : 01:40:17.512000000
    FromStats_FrameCount        : 3084
    FromStats_StreamSize        : 12929101

    Text #2
    ID                          : 5
    Format                      : PGS
    Muxing mode                 : zlib
    Codec ID                    : S_HDMV/PGS
    Codec ID/Info               : Picture based subtitle format used on BDs/HD-DVDs
    Language                    : English
    Default                     : No
    Forced                      : No
    Statistics Tags Issue       : mkvmerge v10.0.0 ('To Drown In You') 64bit 2017-07-12 01:53:34 / mkvmerge v10.0.0 ('To Drown In You') 64bit 2017-07-12 01:53:34 / UTC 2017-07-11T21:48:56Z
    FromStats_BitRate           : 19987
    FromStats_Duration          : 01:40:05.833000000
    FromStats_FrameCount        : 3672
    FromStats_StreamSize        : 15005319

    Menu
    00:00:00.000                : :Chapter 1
    00:04:36.318                : :Chapter 2
    00:07:49.302                : :Chapter 3
    00:12:55.525                : :Chapter 4
    00:18:50.004                : :Chapter 5
    00:22:23.008                : :Chapter 6
    00:29:13.085                : :Chapter 7
    00:33:18.830                : :Chapter 8
    00:37:56.399                : :Chapter 9
    00:42:57.825                : :Chapter 10
    00:45:34.357                : :Chapter 11
    00:48:06.675                : :Chapter 12
    00:50:58.806                : :Chapter 13
    00:54:31.685                : :Chapter 14
    00:59:05.959                : :Chapter 15
    01:03:52.787                : :Chapter 16
    01:08:44.787                : :Chapter 17
    01:14:52.279                : :Chapter 18
    01:19:29.348                : :Chapter 19
    01:23:44.770                : :Chapter 20
    01:26:54.751                : :Chapter 21
    01:29:38.832                : :Chapter 22
    01:32:49.272                : :Chapter 23
    01:35:36.648                : :Chapter 24

  • Peso: 4.36 gb

Sinopsis

Ambientada en un pueblo costero de Florida, Gifted cuenta la historia de Frank Adler, un hombre soltero que cría a su sobrina Mary tras el fallecimiento de su madre. La niña tiene una gran habilidad para las matemáticas y su abuela Evelyn lo sabe bien. Mientras que su tío intenta que la vida de la pequeña sea lo más normal posible y que disfrute de su infancia, Evelyn tiene otros planes para ella. Como consecuencia, Frank se verá obligado a luchar desesperadamente por su custodia.

Ficha técnica

  • Titulo original: Gifted
  • Fecha de lanzamiento: 12-04-2017 (United States of America)
  • Director: Marc Webb
  • Género: Drama, FULL 1080p Pesadas
  • Puntuación: 5.0 2 votos
  • Duración:
    1h 41m

Imágenes, Capturas de la película

Video trailer de la película

Enlaces de descarga

Descargar Un don excepcional (2017) Full 1080p Latino
Descargar

dpeliculas

Aportes de DPeliculasHDmega la pass es:dpeliculashdmega.org Aportes de CinemaniaHD la pass es:cinemaniahdd.com
Guardado en : Drama , FULL 1080p Pesadas

PelícuDelas relacionadas

  • The Resurrection of Gavin Stone (2017) 1080p Latino

    2017
    The Resurrection of Gavin Stone (2017) 1080p Latino

    0.0 1 h 31 min 2017

    Una antigua estrella infantil se ve obligada a prestar un servicio comunitario en una gran iglesia de...

    Director: Dallas Jenkins

    Género: Comedia

    Actores: Tim Frank

  • Secuestrado (2017) 1080p Latino

    2017
    Secuestrado (2017) 1080p Latino

    0.0 1h 34m 2017

    Una madre no se detendrá ante nada para intentar recuperar a su hijo cuando este es secuestrado delante...

    Director: Nicole Garcea

    Género: Drama

    Actores: Timothy Fannon

  • The Phenom (2016) 1080p Latino

    2016
    The Phenom (2016) 1080p Latino

    0.0 1 h 27 min 2016

    Noah Buschel (Glass Chin) escribe y dirige este drama deportivo sobre un joven atleta tan torturado por...

    Director: Noah Buschel

    Género: Drama

    Actores: Yul Vazquez

  • The Good Catholic (2017) Full 1080p Latino

    2017
    The Good Catholic (2017) Full 1080p Latino

    0.0 1 h 37 min 2017

    Daniel amaba su trabajo como sacerdote de un pequeño pueblo más que nada. Entonces conoció a Jane....

    Director: Paul Shoulberg

    Género: Comedia

    Actores: Zachary Spicer

Comentarios 2
  • slash - 15 julio, 2017

    Jajajaja pensé que de esta no sacarías plateada, a bajarla de nuevo, muchas gracias cine.

  • damian - 12 julio, 2017

    para cuando REY ARTURO peliculon