Un don excepcional (2017) 1080p Latino

1.633 vistas
1 estrella2 estrellas3 estrellas4 estrellas5 estrellas (1 votos, promedio: 5,00 de 5)
Cargando…

Información de Un don excepcional (2017) 1080p Latino

Datos de la película

  • Calidad: 1080p
  • Audio: Español Latino AC3 2.0 DVD - Ingles AC3 5.1 BLURAY
  • Subtitulos: Español Latino SRT - Ingles SRT
  • Resolución: 1920x800p
  • Formato: MKV
  • Codec: H.264
  • Encoder: Dpelis
  • Mediainfo: Ver Ver
  • Gifted.2017.1080p.Latino.mkv
    Format                      : Matroska
    Format version              : Version 4 / Version 2
    File size                   : 2.84 GiB
    Duration                    : 1 h 41 min
    Overall bit rate            : 4 026 kb/s
    Movie name                  : DPeliculasHDMega.ORG
    Encoded date                : UTC 2017-07-11 01:53:48 / UTC 2017-07-11T01:19:11Z
    Writing application         : mkvmerge v10.0.0 ('To Drown In You') 64bit
    Writing library             : libebml v1.3.4 + libmatroska v1.4.5 / Lavf57.7.2

    Video
    ID                          : 1
    Format                      : AVC
    Format/Info                 : Advanced Video Codec
    Format profile              : [email protected]
    Format settings, CABAC      : Yes
    Format settings, ReFrames   : 4 frames
    Codec ID                    : V_MPEG4/ISO/AVC
    Duration                    : 1 h 41 min
    Bit rate                    : 3 500 kb/s
    Width                       : 1 920 pixels
    Height                      : 800 pixels
    Display aspect ratio        : 2.40:1
    Frame rate mode             : Constant
    Frame rate                  : 23.976 (24000/1001) FPS
    Color space                 : YUV
    Chroma subsampling          : 4:2:0
    Bit depth                   : 8 bits
    Scan type                   : Progressive
    Bits/(Pixel*Frame)          : 0.095
    Stream size                 : 2.38 GiB (84%)
    Writing library             : x264 core 148 r2708 86b7198
    Encoding settings           : cabac=1 / ref=3 / deblock=1:0:0 / analyse=0x3:0x113 / me=hex / subme=7 / psy=1 / psy_rd=1.00:0.00 / mixed_ref=1 / me_range=16 / chroma_me=1 / trellis=1 / 8x8dct=1 / cqm=0 / deadzone=21,11 / fast_pskip=1 / chroma_qp_offset=-2 / threads=25 / lookahead_threads=4 / sliced_threads=0 / nr=0 / decimate=1 / interlaced=0 / bluray_compat=0 / constrained_intra=0 / bframes=3 / b_pyramid=2 / b_adapt=1 / b_bias=0 / direct=1 / weightb=1 / open_gop=0 / weightp=2 / keyint=240 / keyint_min=24 / scenecut=40 / intra_refresh=0 / rc_lookahead=40 / rc=abr / mbtree=1 / bitrate=3500 / ratetol=1.0 / qcomp=0.60 / qpmin=0 / qpmax=69 / qpstep=4 / vbv_maxrate=62500 / vbv_bufsize=78125 / nal_hrd=none / filler=0 / ip_ratio=1.40 / aq=1:1.00
    Default                     : Yes
    Forced                      : No
    Color range                 : Limited
    Color primaries             : BT.709
    Transfer characteristics    : BT.709
    Matrix coefficients         : BT.709
    Statistics Tags Issue       : mkvmerge v10.0.0 ('To Drown In You') 64bit 2017-07-11 01:53:48 / mkvmerge v10.0.0 ('To Drown In You') 64bit 2017-07-11 01:53:48 / UTC 2017-07-11T01:19:11Z
    FromStats_BitRate           : 3447426
    FromStats_Duration          : 01:41:10.023000000
    FromStats_FrameCount        : 145535
    FromStats_StreamSize        : 2615744832

    Audio #1
    ID                          : 2
    Format                      : AC-3
    Format/Info                 : Audio Coding 3
    Mode                        : Dolby Digital
    Format settings, Endianness : Big
    Codec ID                    : A_AC3
    Duration                    : 1 h 41 min
    Bit rate mode               : Constant
    Bit rate                    : 192 kb/s
    Channel(s)                  : 2 channels
    Channel positions           : Front: L R
    Sampling rate               : 48.0 kHz
    Frame rate                  : 31.250 FPS (1536 spf)
    Bit depth                   : 16 bits
    Compression mode            : Lossy
    Delay relative to video     : -5 ms
    Stream size                 : 139 MiB (5%)
    Language                    : Spanish
    Service kind                : Complete Main
    Default                     : Yes
    Forced                      : No
    Statistics Tags Issue       : mkvmerge v10.0.0 ('To Drown In You') 64bit 2017-07-11 01:53:48 / mkvmerge v10.0.0 ('To Drown In You') 64bit 2017-07-11 01:53:48 / UTC 2017-07-11T01:19:11Z
    FromStats_BitRate           : 192000
    FromStats_Duration          : 01:41:08.928000000
    FromStats_FrameCount        : 189654
    FromStats_StreamSize        : 145654272

    Audio #2
    ID                          : 3
    Format                      : AC-3
    Format/Info                 : Audio Coding 3
    Format settings, Endianness : Big
    Codec ID                    : A_AC3
    Duration                    : 1 h 41 min
    Bit rate mode               : Constant
    Bit rate                    : 384 kb/s
    Channel(s)                  : 6 channels
    Channel positions           : Front: L C R, Side: L R, LFE
    Sampling rate               : 48.0 kHz
    Frame rate                  : 31.250 FPS (1536 spf)
    Bit depth                   : 16 bits
    Compression mode            : Lossy
    Delay relative to video     : -5 ms
    Stream size                 : 278 MiB (10%)
    Title                       : Surround
    Language                    : English
    Service kind                : Complete Main
    Default                     : No
    Forced                      : No
    Statistics Tags Issue       : mkvmerge v10.0.0 ('To Drown In You') 64bit 2017-07-11 01:53:48 / mkvmerge v10.0.0 ('To Drown In You') 64bit 2017-07-11 01:53:48 / UTC 2017-07-11T01:19:11Z
    FromStats_BitRate           : 384000
    FromStats_Duration          : 01:41:10.080000000
    FromStats_FrameCount        : 189690
    FromStats_StreamSize        : 291363840

    Text #1
    ID                          : 4
    Format                      : UTF-8
    Codec ID                    : S_TEXT/UTF8
    Codec ID/Info               : UTF-8 Plain Text
    Language                    : Spanish
    Default                     : No
    Forced                      : No
    Statistics Tags Issue       : mkvmerge v10.0.0 ('To Drown In You') 64bit 2017-07-11 01:53:48 / mkvmerge v10.0.0 ('To Drown In You') 64bit 2017-07-11 01:53:48 / UTC 2017-07-11T01:19:11Z
    FromStats_BitRate           : 74
    FromStats_Duration          : 01:37:14.149000000
    FromStats_FrameCount        : 1672
    FromStats_StreamSize        : 54070

    Text #2
    ID                          : 5
    Format                      : UTF-8
    Codec ID                    : S_TEXT/UTF8
    Codec ID/Info               : UTF-8 Plain Text
    Language                    : English
    Default                     : No
    Forced                      : No
    Statistics Tags Issue       : mkvmerge v10.0.0 ('To Drown In You') 64bit 2017-07-11 01:53:48 / mkvmerge v10.0.0 ('To Drown In You') 64bit 2017-07-11 01:53:48 / UTC 2017-07-11T01:19:11Z
    FromStats_BitRate           : 70
    FromStats_Duration          : 01:40:05.843000000
    FromStats_FrameCount        : 1836
    FromStats_StreamSize        : 52905

    Text #3
    ID                          : 6
    Format                      : UTF-8
    Codec ID                    : S_TEXT/UTF8
    Codec ID/Info               : UTF-8 Plain Text
    Language                    : Spanish
    Default                     : Yes
    Forced                      : No
    Statistics Tags Issue       : mkvmerge v10.0.0 ('To Drown In You') 64bit 2017-07-11 01:53:48 / mkvmerge v10.0.0 ('To Drown In You') 64bit 2017-07-11 01:53:48 / UTC 2017-07-11T01:19:11Z
    FromStats_BitRate           : 28
    FromStats_Duration          : 00:00:20.100000000
    FromStats_FrameCount        : 1
    FromStats_StreamSize        : 71

    Menu
    00:00:00.000                : :00:00:00.000
    00:04:36.359                : :00:04:36.318
    00:07:49.302                : :00:07:49.302
    00:12:55.566                : :00:12:55.525
    00:18:50.046                : :00:18:50.004
    00:22:23.008                : :00:22:23.008
    00:29:13.085                : :00:29:13.085
    00:33:18.830                : :00:33:18.830
    00:37:56.399                : :00:37:56.399
    00:42:57.992                : :00:42:57.825
    00:45:34.357                : :00:45:34.357
    00:48:06.675                : :00:48:06.675
    00:50:58.847                : :00:50:58.806
    00:54:31.727                : :00:54:31.685
    00:59:06.001                : :00:59:05.959
    01:03:52.787                : :01:03:52.787
    01:08:44.787                : :01:08:44.787
    01:14:52.279                : :01:14:52.279
    01:19:29.390                : :01:19:29.348
    01:23:44.811                : :01:23:44.770
    01:26:54.793                : :01:26:54.751
    01:29:38.832                : :01:29:38.832
    01:32:49.314                : :01:32:49.272
    01:35:36.689                : :01:35:36.648

  • Peso: 2.84GB

Sinopsis

Descargar Gifted hd Latino, tambien conocida como Un don excepciona del 2017 Frank es un hombre soltero con una vida muy cómoda. Pero un buen día todo cambiará cuando se queda encargado de cuidar a la pequeña Mary, su sobrina. Esta niña tiene una mente extraordinaria, superior a la de cualquier niño de su edad. Por ello, los planes que su tío tenía para ella comienzan a tambalearse cuando las habilidades matemáticas de Mary empiezan a llamar la atención de su abuela, la madre de Frank. Esta quiere lo mejor para su nieta, lo que puede significar que tío y sobrina se vean obligados a separarse. Esta historia está tratada de una forma muy realista, mostrando lo más fielmente las emociones y sentimientos de los personajes. Está dirigida por Marc Webb, y protagonizada por Chris Evans y Mckenna Grace.

Ficha técnica

  • Titulo original: Gifted
  • Fecha de lanzamiento: 12-04-2017 (United States of America)
  • Director: Marc Webb
  • Género: Drama
  • Puntuación: 5.0 1 votos
  • Duración:
    1h 41m

Imágenes, Capturas de la película

Video trailer de la película

Enlaces de descarga

Descargar Un don excepcional (2017) 1080p Latino
Descargar

dpeliculas

Aportes de DPeliculasHDmega la pass es:dpeliculashdmega.org Aportes de CinemaniaHD la pass es:cinemaniahdd.com
Guardado en : Drama

PelícuDelas relacionadas

  • Born in China (2016) 1080p Latino

    2017
    Born in China (2016) 1080p Latino

    0.0 1h 19m 2017

    Documental de la filial de Walt Disney Disneynature que recoge la vida salvaje y la belleza natural de...

    Director: Lu Chuan

    Género: Documental

    Actores: Zhou Xun

  • Gold la gran estafa (2016) 1080p Latino

    2016
    Gold la gran estafa (2016) 1080p Latino

    0.0 2h 1m 2016

    Descarga Gold hd latino, también conocida La gran estafa 1080p latino Kenny Wells es un fracasado hombre...

    Director: Stephen Gaghan

    Género: Aventura

    Actores: Yothin Mapobphun

  • Juego de Tronos (2016) Temporada 6 Full Latino

    2011/03/17
    Juego de Tronos (2016) Temporada 6 Full Latino

    0.0 60 Min. 2011/03/17

    Descargar gratis Juego de Tronos (2016) Temporada 6 Full Latino Sinopsis capitulo 1: Jon Nieve está...

    Director: David Benioff

    Género: Drama

    Actores: Sophie Turner

  • Juegos de Tronos (2015) Temporada 5 Full Latino

    2011/03/17
    Juegos de Tronos (2015) Temporada 5 Full Latino

    5.0 60 Min. 2011/03/17

    Descargar gratis Juegos de Tronos (2015) Temporada 5 Full Latino  Sinopsis captitulo 1: La reina Cersei...

    Director: David Benioff

    Género: Drama

    Actores: Sophie Turner

  • The Ring 2 (2005) WEB-DL 1080p Latino

    2005
    The Ring 2 (2005) WEB-DL 1080p Latino

    0.0 1h 51m 2005

    Descargar gratis The Ring 2 (2005) WEB-DL 1080p Latino. Para escapar de una vida que era una auténtica...

    Director: Trudy Ramirez

    Género: Drama

    Actores: Sissy Spacek

Comentarios 1
  • slash - 12 Julio, 2017

    Gracias por la película, muy buena, saludos.