Un Chofer en Apuros (2016) WEBDL 1080p Latino

2.032 vistas
1 estrella2 estrellas3 estrellas4 estrellas5 estrellas (Ninguna valoración todavía)
Cargando…

Información de Un Chofer en Apuros (2016) WEBDL 1080p Latino

Datos de la película

  • Calidad: WEBDL
  • Audio: Español Latino AC3 2.0 iTunes - Ingles AC3 5.1 iTunes
  • Subtitulos: Español Latino SRT
  • Resolución: 1916x796
  • Formato: MKV
  • Codec: H.264
  • Encoder: Dpelis1
  • Mediainfo: Ver Ver
  • Video
    ID                                       : 1
    Format                                   : AVC
    Format/Info                              : Advanced Video Codec
    Format profile                           : [email protected]
    Format settings, CABAC                   : Yes
    Format settings, RefFrames               : 5 frames
    Codec ID                                 : V_MPEG4/ISO/AVC
    Duration                                 : 1 h 29 min
    Bit rate                                 : 4 482 kb/s
    Width                                    : 1 916 pixels
    Height                                   : 796 pixels
    Display aspect ratio                     : 2.40:1
    Frame rate mode                          : Constant
    Frame rate                               : 23.976 (23976/1000) FPS
    Standard                                 : Component
    Color space                              : YUV
    Chroma subsampling                       : 4:2:0
    Bit depth                                : 8 bits
    Scan type                                : Progressive
    Bits/(Pixel*Frame)                       : 0.123
    Stream size                              : 2.75 GiB (88%)
    Writing library                          : x264 core 148 r2643
    Encoding settings                        : cabac=1 / ref=5 / deblock=1:-3:-3 / analyse=0x3:0x133 / me=hex / subme=7 / psy=1 / psy_rd=1.00:0.00 / mixed_ref=0 / me_range=16 / chroma_me=1 / trellis=1 / 8x8dct=1 / cqm=0 / deadzone=21,11 / fast_pskip=1 / chroma_qp_offset=-2 / threads=12 / lookahead_threads=2 / sliced_threads=0 / nr=0 / decimate=1 / interlaced=0 / bluray_compat=0 / constrained_intra=0 / bframes=3 / b_pyramid=0 / b_adapt=2 / b_bias=0 / direct=1 / weightb=1 / open_gop=0 / weightp=2 / keyint=239 / keyint_min=23 / scenecut=40 / intra_refresh=0 / rc_lookahead=40 / rc=abr / mbtree=1 / bitrate=4482 / ratetol=1.0 / qcomp=0.60 / qpmin=10 / qpmax=69 / qpstep=4 / vbv_maxrate=61500 / vbv_bufsize=61500 / nal_hrd=none / filler=0 / ip_ratio=1.40 / aq=3:1.00
    Default                                  : Yes
    Forced                                   : No
    Color range                              : Limited
    Color primaries                          : BT.709
    Transfer characteristics                 : BT.709
    Matrix coefficients                      : BT.709

    Audio #1
    ID                                       : 2
    Format                                   : AC-3
    Format/Info                              : Audio Coding 3
    Format settings, Endianness              : Big
    Codec ID                                 : A_AC3
    Duration                                 : 1 h 29 min
    Bit rate mode                            : Constant
    Bit rate                                 : 192 kb/s
    Channel(s)                               : 2 channels
    Channel positions                        : Front: L R
    Sampling rate                            : 48.0 kHz
    Frame rate                               : 31.250 FPS (1536 SPF)
    Bit depth                                : 16 bits
    Compression mode                         : Lossy
    Stream size                              : 123 MiB (4%)
    Language                                 : Spanish
    Service kind                             : Complete Main
    Default                                  : Yes
    Forced                                   : No

    Audio #2
    ID                                       : 3
    Format                                   : AC-3
    Format/Info                              : Audio Coding 3
    Format settings, Endianness              : Big
    Codec ID                                 : A_AC3
    Duration                                 : 1 h 29 min
    Bit rate mode                            : Constant
    Bit rate                                 : 384 kb/s
    Channel(s)                               : 6 channels
    Channel positions                        : Front: L C R, Side: L R, LFE
    Sampling rate                            : 48.0 kHz
    Frame rate                               : 31.250 FPS (1536 SPF)
    Bit depth                                : 16 bits
    Compression mode                         : Lossy
    Stream size                              : 246 MiB (8%)
    Language                                 : English
    Service kind                             : Complete Main
    Default                                  : No
    Forced                                   : No

    Text #1
    ID                                       : 4
    Format                                   : UTF-8
    Codec ID                                 : S_TEXT/UTF8
    Codec ID/Info                            : UTF-8 Plain Text
    Duration                                 : 10 s 100 ms
    Bit rate                                 : 87 b/s
    Count of elements                        : 1
    Stream size                              : 110 Bytes (0%)
    Default                                  : Yes
    Forced                                   : No

    Text #2
    ID                                       : 5
    Format                                   : UTF-8
    Codec ID                                 : S_TEXT/UTF8
    Codec ID/Info                            : UTF-8 Plain Text
    Duration                                 : 1 h 26 min
    Bit rate                                 : 73 b/s
    Count of elements                        : 1458
    Stream size                              : 46.5 KiB (0%)
    Language                                 : Spanish
    Default                                  : No
    Forced                                   : No

  • Peso: 3,11 GB

Sinopsis

Guy Carter es un estudiante graduado de arquitectura, tiene una bella esposa y un bebé en camino. ¿El problema? sus dudas acerca de ser un buen padre. Guy ha estado tratando de encontrar trabajo en su campo durante un año sin suerte. En el extremo del ingenio, su esposa Anne le consigue trabajo como “conductor” en Craigslist. Guy llega a la entrevista pensando que será un entrega pizzas, pero rápidamente se da cuenta de que es un trabajo para conducir prostitutas. Con el dinero demasiado escaso, toma el trabajo y ahí conoce a Nikki, una fuerte y sin complejos trabajadora sexual, y sus dos hilarantes y malhabladas compañeras, Jaxi y Fallon. Como conductor y protector Guy se ve inmerso en un mundo de cambiantes mujeres y hombres débiles y en el transcurso de una noche salvaje y sórdida, Guy le demuestra a Nikki, y a sí mismo, que él tiene lo necesario para ser el padre responsable que su familia merece.

Ficha técnica

  • Titulo original: Amateur Night
  • Fecha de lanzamiento: 12-08-2016 (United States of America)
  • Director: Joe Syracuse, Lisa Addario
  • Género: Comedia
  • Puntuación: 0.0 0 votos
  • Duración:
    0h 0m

Imágenes, Capturas de la película

Video trailer de la película

Enlaces de descarga

Descargar Un Chofer en Apuros (2016) WEBDL 1080p Latino
Descargar

dpeliculas

Aportes de DPeliculasHDmega la pass es:dpeliculashdmega.org Aportes de CinemaniaHD la pass es:cinemaniahdd.com
Guardado en : Comedia

PelícuDelas relacionadas

  • The Meyerowitz Stories (2017) 1080p Latino

    2017
    The Meyerowitz Stories (2017) 1080p Latino

    0.0 1 h 52 min 2017

    Los tres hijos, ya adultos, de un arisco artista neoyorquino se enfrentan a la difícil relación que...

    Director: Noah Baumbach

    Género: Comedia

    Actores: Victor Cruz

  • Batman vs. Two-Face (2017) Full 1080p Latino

    2017
    Batman vs. Two-Face (2017) Full 1080p Latino

    0.0 1 h 12 min 2017

    En la Penitenciaría de Gotham, en presencia de Batman, Robin y el Fiscal de Distrito Harvey Dent, el...

    Director: Rick Morales

    Género: Acción

    Actores: William Shatner

  • Emoji: La película (2017) Full 1080p Latino

    2017
    Emoji: La película (2017) Full 1080p Latino

    5.0 1 h 26 min 2017

    Dentro de tu teléfono móvil existe todo un mundo secreto nunca antes visto. Oculta tras la aplicación...

    Director: Anthony Leondis

    Género: Animación

    Actores: William Townsend

  • Emoji: La película (2017) 1080p Latino

    2017
    Emoji: La película (2017) 1080p Latino

    1.0 1 h 26 min 2017

    Los protagonistas habitarán la misteriosa tierra de Textopolis, donde todos los emojis favoritos de...

    Director: Anthony Leondis

    Género: Animación

    Actores: William Townsend

Comentarios 2
  • gorge salvador - 26 septiembre, 2017

    alguien sabe si saldrá en portada gris?

    • dpelis

      Administrador
      - 26 septiembre, 2017

      por el momento no sabemos