Turbo Kid (2015) 1080p Latino

1.421 vistas
1 estrella2 estrellas3 estrellas4 estrellas5 estrellas (Ninguna valoración todavía)
Cargando…

Información de Turbo Kid (2015) 1080p Latino

Turbo Kid 1080 latino

Datos de la película

  • Calidad: 1080p
  • Audio: Español Latino AC3 2.0 DVD - Ingles AC3 5.1 BLURAY
  • Subtitulos: Español Latino SRT - Ingles SRT
  • Resolución: 1920x1080p
  • Formato: MKV
  • Codec: H.264
  • Encoder: Dpelis
  • Mediainfo: Ver Ver
  • Turbo.kid.2015.1080p.latino.mkv
    Format                      : Matroska
    Format version              : Version 4 / Version 2
    File size                   : 2.71 GiB
    Duration                    : 1 h 32 min
    Overall bit rate            : 4 177 kb/s
    Encoded date                : UTC 2017-05-10 01:46:54 / UTC 2017-05-09T23:14:10Z
    Writing application         : mkvmerge v10.0.0 ('To Drown In You') 64bit
    Writing library             : libebml v1.3.4 + libmatroska v1.4.5 / Lavf57.7.2

    Video
    ID                          : 1
    Format                      : AVC
    Format/Info                 : Advanced Video Codec
    Format profile              : [email protected]
    Format settings, CABAC      : Yes
    Format settings, ReFrames   : 4 frames
    Codec ID                    : V_MPEG4/ISO/AVC
    Duration                    : 1 h 32 min
    Bit rate                    : 3 262 kb/s
    Nominal bit rate            : 3 500 kb/s
    Width                       : 1 920 pixels
    Height                      : 808 pixels
    Display aspect ratio        : 2.40:1
    Frame rate mode             : Constant
    Frame rate                  : 23.976 (24000/1001) FPS
    Color space                 : YUV
    Chroma subsampling          : 4:2:0
    Bit depth                   : 8 bits
    Scan type                   : Progressive
    Bits/(Pixel*Frame)          : 0.088
    Stream size                 : 2.12 GiB (78%)
    Writing library             : x264 core 148 r2708 86b7198
    Encoding settings           : cabac=1 / ref=3 / deblock=1:0:0 / analyse=0x3:0x113 / me=hex / subme=7 / psy=1 / psy_rd=1.00:0.00 / mixed_ref=1 / me_range=16 / chroma_me=1 / trellis=1 / 8x8dct=1 / cqm=0 / deadzone=21,11 / fast_pskip=1 / chroma_qp_offset=-2 / threads=12 / lookahead_threads=2 / sliced_threads=0 / nr=0 / decimate=1 / interlaced=0 / bluray_compat=0 / constrained_intra=0 / bframes=3 / b_pyramid=2 / b_adapt=1 / b_bias=0 / direct=1 / weightb=1 / open_gop=0 / weightp=2 / keyint=240 / keyint_min=24 / scenecut=40 / intra_refresh=0 / rc_lookahead=40 / rc=abr / mbtree=1 / bitrate=3500 / ratetol=1.0 / qcomp=0.60 / qpmin=0 / qpmax=69 / qpstep=4 / vbv_maxrate=62500 / vbv_bufsize=78125 / nal_hrd=none / filler=0 / ip_ratio=1.40 / aq=1:1.00
    Default                     : Yes
    Forced                      : No
    Color range                 : Limited
    Color primaries             : BT.709
    Transfer characteristics    : BT.709
    Matrix coefficients         : BT.709
    Statistics Tags Issue       : mkvmerge v10.0.0 ('To Drown In You') 64bit 2017-05-10 01:46:54 / mkvmerge v10.0.0 ('To Drown In You') 64bit 2017-05-10 01:46:54 / UTC 2017-05-09T23:14:10Z
    FromStats_BitRate           : 3344524
    FromStats_Duration          : 01:32:53.485000000
    FromStats_FrameCount        : 133630
    FromStats_StreamSize        : 2330082428

    Audio #1
    ID                          : 2
    Format                      : AC-3
    Format/Info                 : Audio Coding 3
    Format settings, Endianness : Big
    Codec ID                    : A_AC3
    Duration                    : 1 h 32 min
    Bit rate mode               : Constant
    Bit rate                    : 448 kb/s
    Channel(s)                  : 2 channels
    Channel positions           : Front: L R
    Sampling rate               : 48.0 kHz
    Frame rate                  : 31.250 FPS (1536 spf)
    Bit depth                   : 16 bits
    Compression mode            : Lossy
    Delay relative to video     : 19 s 195 ms
    Stream size                 : 298 MiB (11%)
    Language                    : Spanish
    Service kind                : Complete Main
    Default                     : Yes
    Forced                      : No
    Statistics Tags Issue       : mkvmerge v10.0.0 ('To Drown In You') 64bit 2017-05-10 01:46:54 / mkvmerge v10.0.0 ('To Drown In You') 64bit 2017-05-10 01:46:54 / UTC 2017-05-09T23:14:10Z
    FromStats_BitRate           : 448000
    FromStats_Duration          : 01:32:27.680000000
    FromStats_FrameCount        : 173365
    FromStats_StreamSize        : 310670080

    Audio #2
    ID                          : 3
    Format                      : AC-3
    Format/Info                 : Audio Coding 3
    Format settings, Endianness : Big
    Codec ID                    : A_AC3
    Duration                    : 1 h 32 min
    Bit rate mode               : Constant
    Bit rate                    : 384 kb/s
    Channel(s)                  : 6 channels
    Channel positions           : Front: L C R, Side: L R, LFE
    Sampling rate               : 48.0 kHz
    Frame rate                  : 31.250 FPS (1536 spf)
    Bit depth                   : 16 bits
    Compression mode            : Lossy
    Delay relative to video     : -5 ms
    Stream size                 : 255 MiB (9%)
    Title                       : Surround
    Language                    : English
    Service kind                : Complete Main
    Default                     : No
    Forced                      : No
    Statistics Tags Issue       : mkvmerge v10.0.0 ('To Drown In You') 64bit 2017-05-10 01:46:54 / mkvmerge v10.0.0 ('To Drown In You') 64bit 2017-05-10 01:46:54 / UTC 2017-05-09T23:14:10Z
    FromStats_BitRate           : 384000
    FromStats_Duration          : 01:32:53.440000000
    FromStats_FrameCount        : 174170
    FromStats_StreamSize        : 267525120

    Text #1
    ID                          : 4
    Format                      : UTF-8
    Codec ID                    : S_TEXT/UTF8
    Codec ID/Info               : UTF-8 Plain Text
    Language                    : Spanish
    Default                     : No
    Forced                      : No
    Statistics Tags Issue       : mkvmerge v10.0.0 ('To Drown In You') 64bit 2017-05-10 01:46:54 / mkvmerge v10.0.0 ('To Drown In You') 64bit 2017-05-10 01:46:54 / UTC 2017-05-09T23:14:10Z
    FromStats_BitRate           : 34
    FromStats_Duration          : 01:27:56.595000000
    FromStats_FrameCount        : 742
    FromStats_StreamSize        : 22567

    Text #2
    ID                          : 5
    Format                      : UTF-8
    Codec ID                    : S_TEXT/UTF8
    Codec ID/Info               : UTF-8 Plain Text
    Language                    : English
    Default                     : No
    Forced                      : No
    Statistics Tags Issue       : mkvmerge v10.0.0 ('To Drown In You') 64bit 2017-05-10 01:46:54 / mkvmerge v10.0.0 ('To Drown In You') 64bit 2017-05-10 01:46:54 / UTC 2017-05-09T23:14:10Z
    FromStats_BitRate           : 36
    FromStats_Duration          : 01:25:59.112000000
    FromStats_FrameCount        : 851
    FromStats_StreamSize        : 23274

    Text #3
    ID                          : 6
    Format                      : UTF-8
    Codec ID                    : S_TEXT/UTF8
    Codec ID/Info               : UTF-8 Plain Text
    Language                    : Spanish
    Default                     : Yes
    Forced                      : No
    Statistics Tags Issue       : mkvmerge v10.0.0 ('To Drown In You') 64bit 2017-05-10 01:46:54 / mkvmerge v10.0.0 ('To Drown In You') 64bit 2017-05-10 01:46:54 / UTC 2017-05-09T23:14:10Z
    FromStats_BitRate           : 91
    FromStats_Duration          : 00:00:10.100000000
    FromStats_FrameCount        : 1
    FromStats_StreamSize        : 115

    Menu
    00:00:00.000                : :00:00:00.000
    00:06:45.363                : :00:06:45.363
    00:15:51.826                : :00:15:51.742
    00:23:48.260                : :00:23:48.260
    00:31:56.415                : :00:31:56.248
    00:42:37.680                : :00:42:37.597
    00:46:55.104                : :00:46:55.104
    00:55:19.274                : :00:55:19.274
    01:05:08.154                : :01:05:08.071
    01:17:25.266                : :01:17:25.266
    01:21:10.574                : :01:21:10.574
    01:28:09.701                : :01:28:09.701

  • Peso: 2.71 GB

Sinopsis

Aunque fue fundada en 1997, Super Niño cuenta la historia de un futuro post-apocalíptico donde la Tierra ha sido devastada por la lluvia ácida y el agua es escasa. El protagonista es un adolescente en el amor con el superhéroe de cómic que un día conoce a una misteriosa niña llamada Apple.

Los dos jóvenes se embarcan en una misión que tendrá lugar en grave peligro. Cuando el mal Zeus entre el escenario y el dúo amenaza, deben demostrar que son más fuertes de lo que pensaban. Apple está secuestrada por el malvado y el niño tiene que salvar a la chica de sus sueños y liberar la tierra del desierto del mal sembrado por Zeus.

Ficha técnica

Imágenes, Capturas de la película

Video trailer de la película

Enlaces de descarga

Descargar Turbo Kid (2015) 1080p Latino
Descargar

dpeliculas

Aportes de DPeliculasHDmega la pass es:dpeliculashdmega.org Aportes de CinemaniaHD la pass es:cinemaniahdd.com

PelícuDelas relacionadas

Comentarios 0