Advertise here

Tom y Jerry Regreso al mundo de OZ (2016) WEBDL 1080p Latino

800 vistas
1 estrella2 estrellas3 estrellas4 estrellas5 estrellas (Ninguna valoración todavía)
Cargando…

Información de Tom y Jerry Regreso al mundo de OZ (2016) WEBDL 1080p Latino

Datos de la película

  • Calidad: WEBDL
  • Audio: Español Latino AC3 2.0 iTunes - Ingles AC3 5.1 iTunes
  • Subtitulos: No
  • Resolución: 1916x1076p
  • Formato: MKV
  • Codec: H.264
  • Encoder: Dpelis
  • Mediainfo: Clic para Mostrar Datos Ver
  • Tom and Jerry_ Back to Oz 2016 WEBDL 1080p Latino.mkv
    Format                      : Matroska
    Format version              : Version 4 / Version 2
    File size                   : 3.31 GiB
    Duration                    : 1 h 21 min
    Overall bit rate            : 5 834 kb/s
    Encoded date                : UTC 2017-05-20 12:33:31
    Writing application         : mkvmerge v10.0.0 ('To Drown In You') 64bit
    Writing library             : libebml v1.3.4 + libmatroska v1.4.5

    Video
    ID                          : 1
    Format                      : AVC
    Format/Info                 : Advanced Video Codec
    Format profile              : [email protected]
    Format settings, CABAC      : Yes
    Format settings, ReFrames   : 4 frames
    Codec ID                    : V_MPEG4/ISO/AVC
    Duration                    : 1 h 20 min
    Bit rate                    : 5 093 kb/s
    Width                       : 1 916 pixels
    Height                      : 1 076 pixels
    Display aspect ratio        : 16:9
    Frame rate mode             : Constant
    Frame rate                  : 23.976 FPS
    Color space                 : YUV
    Chroma subsampling          : 4:2:0
    Bit depth                   : 8 bits
    Scan type                   : Progressive
    Bits/(Pixel*Frame)          : 0.103
    Stream size                 : 2.88 GiB (87%)
    Language                    : English
    Default                     : Yes
    Forced                      : No
    Color range                 : Limited
    Color primaries             : BT.709
    Transfer characteristics    : BT.709
    Matrix coefficients         : BT.709

    Audio #1
    ID                          : 2
    Format                      : AC-3
    Format/Info                 : Audio Coding 3
    Format settings, Endianness : Big
    Codec ID                    : A_AC3
    Duration                    : 1 h 20 min
    Bit rate mode               : Constant
    Bit rate                    : 192 kb/s
    Channel(s)                  : 2 channels
    Channel positions           : Front: L R
    Sampling rate               : 48.0 kHz
    Frame rate                  : 31.250 FPS (1536 spf)
    Bit depth                   : 16 bits
    Compression mode            : Lossy
    Stream size                 : 111 MiB (3%)
    Language                    : Spanish
    Service kind                : Complete Main
    Default                     : Yes
    Forced                      : No

    Audio #2
    ID                          : 3
    Format                      : AC-3
    Format/Info                 : Audio Coding 3
    Format settings, Endianness : Big
    Codec ID                    : A_AC3
    Duration                    : 1 h 21 min
    Bit rate mode               : Constant
    Bit rate                    : 192 kb/s
    Channel(s)                  : 2 channels
    Channel positions           : Front: L R
    Sampling rate               : 48.0 kHz
    Frame rate                  : 31.250 FPS (1536 spf)
    Bit depth                   : 16 bits
    Compression mode            : Lossy
    Stream size                 : 112 MiB (3%)
    Language                    : Spanish
    Service kind                : Complete Main
    Default                     : No
    Forced                      : No

    Audio #3
    ID                          : 4
    Format                      : AC-3
    Format/Info                 : Audio Coding 3
    Format settings, Endianness : Big
    Codec ID                    : A_AC3
    Duration                    : 1 h 20 min
    Bit rate mode               : Constant
    Bit rate                    : 384 kb/s
    Channel(s)                  : 6 channels
    Channel positions           : Front: L C R, Side: L R, LFE
    Sampling rate               : 48.0 kHz
    Frame rate                  : 31.250 FPS (1536 spf)
    Bit depth                   : 16 bits
    Compression mode            : Lossy
    Stream size                 : 222 MiB (7%)
    Language                    : English
    Service kind                : Complete Main
    Default                     : No
    Forced                      : No

    Text
    ID                          : 5
    Format                      : UTF-8
    Codec ID                    : S_TEXT/UTF8
    Codec ID/Info               : UTF-8 Plain Text
    Duration                    : 10 s 100 ms
    Bit rate                    : 91 b/s
    Count of elements           : 1
    Stream size                 : 115 Bytes (0%)
    Language                    : Spanish
    Default                     : Yes
    Forced                      : No

    Menu
    00:00:00.000                : en:1
    00:08:38.000                : en:2
    00:15:36.000                : en:3
    00:28:25.000                : en:4
    00:39:59.000                : en:5
    00:49:41.000                : en:6
    00:59:29.000                : en:7
    01:08:27.000                : en:8
    01:14:57.000                : en:9

  • Peso: 3.31 GB

Sinopsis

Descargar Tom y Jerry Regreso al mundo de OZ WEBDL 1080p Latino Mega gratis, Bruja Mala del Oeste el exterior de Oz, Tom y Jerry tornò con Dorothy de Kansas. Pero la paz se concluye con la aparición de Gnome. Después de la bruja buena, Gnome rey y su ejército están a la orden en Oz y necesitan sólo una cosa para controlar la Ciudad Esmeralda: zapatos rojos de Dorothy. Depende de nuestro gato favorito y su equipo de vuelta a Oz y salvar la tierra que aman. Gracias al asistente muy contigo Dorothy, Toto, el Espantapájaros, Hombre de Hierro y León en sus aventuras mágicas. No hay escasez de risas y aventuras para hacer frente a nuevos retos y juguetonas criaturas a lo largo del camino de baldosas amarillas … porque no estamos en Kansas.

Ficha técnica

  • Titulo original: Tom & Jerry: Back to Oz
  • Fecha de lanzamiento: 21-06-2016
  • Director: Spike Brandt
  • Género: Animación
  • Puntuación: 0.0 0 votos
  • Duración:
    1h 20m

Video trailer de la película

Enlaces de descarga

Descargar
Descargar Tom y Jerry Regreso al mundo de OZ (2016) WEBDL 1080p Latino

dpeliculas

Aportes de DPeliculasHDmega la pass es:dpeliculashdmega.org Aportes de CinemaniaHD la pass es:cinemaniahdd.com
Guardado en : Animación

Películas relacionadas

  • Cars 3 (2017) Full 1080p Latino

    2017
    Cars 3 (2017) Full 1080p Latino

    0.0 1h 42m 2017

    Rayo McQueen sigue siendo el mejor coche de carreras del mundo, pero ahora que es uno de los más veteranos...

    Director: Brian Fee

    Género: 3D Half OU

    Actores: Tony Shalhoub

  • Cars (2006) Full 1080p Latino

    2006
    Cars (2006) Full 1080p Latino

    4.0 1 h 56 min 2006

    El aspirante a campeón de carreras Rayo McQueen está sobre la vía rápida al éxito, la fama y todo...

    Director: Susan E. Levin

    Género: Animación

    Actores: Vanness Wu

  • Cars 3 (2017) Full 1080p Latino

    2017
    Cars 3 (2017) Full 1080p Latino

    5.0 1 h 42 min 2017

    Sorprendido por una nueva generación de corredores ultrarrápidos, el legendario Rayo McQueen (voz de...

    Director: Brian Fee

    Género: Animación

    Actores: Tony Shalhoub

  • Cars 3 (2017) 1080p Latino

    2017
    Cars 3 (2017) 1080p Latino

    3.0 1 h 42 min 2017

    Rayo McQueen sigue siendo el mejor coche de carreras del mundo, pero ahora que es uno de los más veteranos...

    Director: Brian Fee

    Género: Animación

    Actores: Tony Shalhoub

Comentarios 0