Tom and Jerry (2017) WEBDL 1080p Latino

933 vistas
1 estrella2 estrellas3 estrellas4 estrellas5 estrellas (1 votos, promedio: 5,00 de 5)
Cargando…

Información de Tom and Jerry (2017) WEBDL 1080p Latino

Datos de la película

  • Calidad: WEBDL
  • Audio: Español Latino AC3 2.0 Capturado - Ingles AC3 5.1 WEBDL
  • Subtitulos: No
  • Resolución: 1912X1072P
  • Formato: MKV
  • Codec: H.264
  • Encoder: Dpelis
  • Mediainfo: Ver Ver
  • Tom And Jerry Willy Wonka 2017 WEBDL Latino.mkv
    Format                      : Matroska
    Format version              : Version 4 / Version 2
    File size                   : 2.27 GiB
    Duration                    : 1 h 19 min
    Overall bit rate            : 4 099 kb/s
    Movie name                  : DPeliculasHDMega.ORG
    Encoded date                : UTC 2017-06-28 20:20:23
    Writing application         : mkvmerge v10.0.0 ('To Drown In You') 64bit
    Writing library             : libebml v1.3.4 + libmatroska v1.4.5

    Video
    ID                          : 1
    Format                      : AVC
    Format/Info                 : Advanced Video Codec
    Format profile              : [email protected]
    Format settings, CABAC      : Yes
    Format settings, ReFrames   : 4 frames
    Codec ID                    : V_MPEG4/ISO/AVC
    Duration                    : 1 h 19 min
    Bit rate                    : 3 500 kb/s
    Width                       : 1 912 pixels
    Height                      : 1 072 pixels
    Display aspect ratio        : 16:9
    Frame rate mode             : Constant
    Frame rate                  : 23.976 (24000/1001) FPS
    Color space                 : YUV
    Chroma subsampling          : 4:2:0
    Bit depth                   : 8 bits
    Scan type                   : Progressive
    Bits/(Pixel*Frame)          : 0.071
    Stream size                 : 1.95 GiB (86%)
    Writing library             : x264 core 148 r2708 86b7198
    Encoding settings           : cabac=1 / ref=3 / deblock=1:0:0 / analyse=0x3:0x113 / me=hex / subme=7 / psy=1 / psy_rd=1.00:0.00 / mixed_ref=1 / me_range=16 / chroma_me=1 / trellis=1 / 8x8dct=1 / cqm=0 / deadzone=21,11 / fast_pskip=1 / chroma_qp_offset=-2 / threads=33 / lookahead_threads=5 / sliced_threads=0 / nr=0 / decimate=1 / interlaced=0 / bluray_compat=0 / constrained_intra=0 / bframes=3 / b_pyramid=2 / b_adapt=1 / b_bias=0 / direct=1 / weightb=1 / open_gop=0 / weightp=2 / keyint=240 / keyint_min=24 / scenecut=40 / intra_refresh=0 / rc_lookahead=40 / rc=abr / mbtree=1 / bitrate=3500 / ratetol=1.0 / qcomp=0.60 / qpmin=0 / qpmax=69 / qpstep=4 / vbv_maxrate=62500 / vbv_bufsize=78125 / nal_hrd=none / filler=0 / ip_ratio=1.40 / aq=1:1.00
    Default                     : Yes
    Forced                      : No
    Color range                 : Limited
    Color primaries             : BT.709
    Transfer characteristics    : BT.709
    Matrix coefficients         : BT.709

    Audio #1
    ID                          : 2
    Format                      : AC-3
    Format/Info                 : Audio Coding 3
    Format settings, Endianness : Big
    Codec ID                    : A_AC3
    Duration                    : 1 h 19 min
    Bit rate mode               : Constant
    Bit rate                    : 192 kb/s
    Channel(s)                  : 2 channels
    Channel positions           : Front: L R
    Sampling rate               : 48.0 kHz
    Frame rate                  : 31.250 FPS (1536 spf)
    Bit depth                   : 16 bits
    Compression mode            : Lossy
    Stream size                 : 109 MiB (5%)
    Language                    : Spanish
    Service kind                : Complete Main
    Default                     : Yes
    Forced                      : No

    Audio #2
    ID                          : 3
    Format                      : AC-3
    Format/Info                 : Audio Coding 3
    Format settings, Endianness : Big
    Codec ID                    : A_AC3
    Duration                    : 1 h 19 min
    Bit rate mode               : Constant
    Bit rate                    : 384 kb/s
    Channel(s)                  : 6 channels
    Channel positions           : Front: L C R, Side: L R, LFE
    Sampling rate               : 48.0 kHz
    Frame rate                  : 31.250 FPS (1536 spf)
    Bit depth                   : 16 bits
    Compression mode            : Lossy
    Stream size                 : 218 MiB (9%)
    Language                    : English
    Service kind                : Complete Main
    Default                     : No
    Forced                      : No

    Menu
    00:00:00.000                : en:1
    00:11:34.027                : en:2
    00:21:18.068                : en:3
    00:36:20.053                : en:4
    00:54:18.005                : en:5
    01:10:23.052                : en:6

  • Peso: 2.27 GB

Sinopsis

Descargar Pelicula Tom and Jerry: Willy Wonka and the Chocolate Factoryhd latino. Tom y Jerry ayudan a Charlie Bucket a conseguir un Golden Ticket y lo acompañan en secreto a la fábrica de chocolate de Willy Wonka para evitar que uno de los rivales de Wonka robue un caramelo especial conocido como el Everglasting Gobstopper .

Ficha técnica

  • Titulo original: Tom and Jerry: Willy Wonka and the Chocolate Factory
  • Fecha de lanzamiento: 11-07-2017
  • Género: Animación
  • Puntuación: 5.0 1 votos
  • Duración:
    1h 19m

Imágenes, Capturas de la película

Video trailer de la película

Enlaces de descarga

Descargar Tom and Jerry (2017) WEBDL 1080p Latino
Descargar

dpeliculas

Aportes de DPeliculasHDmega la pass es:dpeliculashdmega.org Aportes de CinemaniaHD la pass es:cinemaniahdd.com
Guardado en : Animación

PelícuDelas relacionadas

Comentarios 6
  • Jorge - 03 Julio, 2017

    Salta el audio a los 8:40. Ya la bajé de Mega y de Google Drive y la falla es la misma. Gracias.

    • dpelis

      Administrador
      - 04 Julio, 2017

      estimado. en los datos de la pelicula dice, capturado. eso quiere decir q se capturo y se edito. para q se adaptara a la version, hice magia con ese audio ya q era un desastre

      • Neshudo - 13 Julio, 2017

        una consulta administrador cuandola suben con el audio de itunes

        • Neshudo - 13 Julio, 2017

          osea del äudio latino estoy hablando

          • dpelis

            Administrador
            - 13 Julio, 2017

            por eso eso estoy hablando yo. el audio latino dice capturado. de un streaming, que se detenia y toco que hacer muchas correcciones.

        • dpelis

          Administrador
          - 13 Julio, 2017

          no va haber