Tik Tok (2016) Webdl 720p Latino

872 vistas
1 estrella2 estrellas3 estrellas4 estrellas5 estrellas (Ninguna valoración todavía)
Cargando…

Información de Tik Tok (2016) Webdl 720p Latino

Datos de la película

  • Calidad: WEBDL
  • Audio: Se especifica abajo de la Sinopsis
  • Subtitulos: No
  • Resolución: 1280x536p
  • Formato: MKV
  • Codec: H.264
  • Encoder: Dpelis
  • Mediainfo: Ver Ver
  • Tik Tok Webdl 720p Latino.mkv
    Format                      : Matroska
    Format version              : Version 4 / Version 2
    File size                   : 1.76 GiB
    Duration                    : 1 h 47 min
    Overall bit rate            : 2 342 kb/s
    Encoded date                : UTC 2017-07-01 23:23:11 / UTC 2017-07-01T22:22:48Z
    Writing application         : mkvmerge v10.0.0 ('To Drown In You') 64bit
    Writing library             : libebml v1.3.4 + libmatroska v1.4.5 / Lavf57.7.2

    Video
    ID                          : 1
    Format                      : AVC
    Format/Info                 : Advanced Video Codec
    Format profile              : [email protected]
    Format settings, CABAC      : Yes
    Format settings, ReFrames   : 4 frames
    Codec ID                    : V_MPEG4/ISO/AVC
    Duration                    : 1 h 47 min
    Bit rate                    : 1 700 kb/s
    Width                       : 1 280 pixels
    Height                      : 536 pixels
    Display aspect ratio        : 2.40:1
    Frame rate mode             : Constant
    Frame rate                  : 24.000 FPS
    Color space                 : YUV
    Chroma subsampling          : 4:2:0
    Bit depth                   : 8 bits
    Scan type                   : Progressive
    Bits/(Pixel*Frame)          : 0.103
    Stream size                 : 1.25 GiB (71%)
    Writing library             : x264 core 148 r2708 86b7198
    Encoding settings           : cabac=1 / ref=3 / deblock=1:0:0 / analyse=0x3:0x113 / me=hex / subme=7 / psy=1 / psy_rd=1.00:0.00 / mixed_ref=1 / me_range=16 / chroma_me=1 / trellis=1 / 8x8dct=1 / cqm=0 / deadzone=21,11 / fast_pskip=1 / chroma_qp_offset=-2 / threads=9 / lookahead_threads=1 / sliced_threads=0 / nr=0 / decimate=1 / interlaced=0 / bluray_compat=0 / constrained_intra=0 / bframes=3 / b_pyramid=2 / b_adapt=1 / b_bias=0 / direct=1 / weightb=1 / open_gop=0 / weightp=2 / keyint=240 / keyint_min=24 / scenecut=40 / intra_refresh=0 / rc_lookahead=40 / rc=abr / mbtree=1 / bitrate=1700 / ratetol=1.0 / qcomp=0.60 / qpmin=0 / qpmax=69 / qpstep=4 / vbv_maxrate=62500 / vbv_bufsize=78125 / nal_hrd=none / filler=0 / ip_ratio=1.40 / aq=1:1.00
    Default                     : Yes
    Forced                      : No
    Color range                 : Limited
    Color primaries             : BT.709
    Transfer characteristics    : BT.709
    Matrix coefficients         : BT.709
    Statistics Tags Issue       : mkvmerge v10.0.0 ('To Drown In You') 64bit 2017-07-01 23:23:11 / mkvmerge v10.0.0 ('To Drown In You') 64bit 2017-07-01 23:23:11 / UTC 2017-07-01T22:22:48Z
    FromStats_BitRate           : 1699979
    FromStats_Duration          : 01:47:40.625000000
    FromStats_FrameCount        : 155055
    FromStats_StreamSize        : 1372866601

    Audio #1
    ID                          : 2
    Format                      : AC-3
    Format/Info                 : Audio Coding 3
    Format settings, Endianness : Big
    Codec ID                    : A_AC3
    Duration                    : 1 h 47 min
    Bit rate mode               : Constant
    Bit rate                    : 256 kb/s
    Channel(s)                  : 2 channels
    Channel positions           : Front: L R
    Sampling rate               : 48.0 kHz
    Frame rate                  : 31.250 FPS (1536 spf)
    Bit depth                   : 16 bits
    Compression mode            : Lossy
    Delay relative to video     : -5 ms
    Stream size                 : 197 MiB (11%)
    Title                       : Stereo
    Language                    : Spanish
    Service kind                : Complete Main
    Default                     : Yes
    Forced                      : No
    Statistics Tags Issue       : mkvmerge v10.0.0 ('To Drown In You') 64bit 2017-07-01 23:23:11 / mkvmerge v10.0.0 ('To Drown In You') 64bit 2017-07-01 23:23:11 / UTC 2017-07-01T22:22:48Z
    FromStats_BitRate           : 256000
    FromStats_Duration          : 01:47:41.088000000
    FromStats_FrameCount        : 201909
    FromStats_StreamSize        : 206754816

    Audio #2
    ID                          : 3
    Format                      : AC-3
    Format/Info                 : Audio Coding 3
    Format settings, Endianness : Big
    Codec ID                    : A_AC3
    Duration                    : 1 h 47 min
    Bit rate mode               : Constant
    Bit rate                    : 384 kb/s
    Channel(s)                  : 6 channels
    Channel positions           : Front: L C R, Side: L R, LFE
    Sampling rate               : 48.0 kHz
    Frame rate                  : 31.250 FPS (1536 spf)
    Bit depth                   : 16 bits
    Compression mode            : Lossy
    Delay relative to video     : -5 ms
    Stream size                 : 296 MiB (16%)
    Title                       : Surround
    Language                    : Chinese
    Service kind                : Complete Main
    Default                     : No
    Forced                      : No
    Statistics Tags Issue       : mkvmerge v10.0.0 ('To Drown In You') 64bit 2017-07-01 23:23:11 / mkvmerge v10.0.0 ('To Drown In You') 64bit 2017-07-01 23:23:11 / UTC 2017-07-01T22:22:48Z
    FromStats_BitRate           : 384000
    FromStats_Duration          : 01:47:41.184000000
    FromStats_FrameCount        : 201912
    FromStats_StreamSize        : 310136832

  • Peso: 1.76 GB

Sinopsis

Película de acción asiático titulado “Tik Tok” es una película que cuenta la historia de un hombre que es un genio y tiene 2 doble carácter, además de ser el autor intelectual de un crimen. Con la acción y terror que se ha hecho, por lo que la policía en la orientación y quiere atraparlo. La policía tuvo que pasar rápidamente de volver a estar en el caos que se produciría.

Espanol Latino AC3 2.0 – Ingles AC3 5.1

 

Subtitulos

Ficha técnica

  • Titulo original: Tik Tok
  • Fecha de lanzamiento: 15-07-2016 (China, South Korea)
  • Director: Jun Li
  • Género: Acción, Crimen, Misterio
  • Puntuación: 0.0 0 votos
  • Duración:
    1h 47m

Imágenes, Capturas de la película

Video trailer de la película

Enlaces de descarga

Descargar Tik Tok (2016) Webdl 720p Latino
Descargar

dpeliculas

Aportes de DPeliculasHDmega la pass es:dpeliculashdmega.org Aportes de CinemaniaHD la pass es:cinemaniahdd.com
Guardado en : Acción , Crimen , Misterio

PelícuDelas relacionadas

  • Operation Mekong (2016) 1080p Latino

    2016
    Operation Mekong (2016) 1080p Latino

    5.0 2h 4m 2016

    A lo largo del río Mekong se encuentra el llamado triángulo dorado, uno de los mayores proveedores...

    Director: Dante Lam

    Género: Acción

    Actores: Zhao Jian

  • Collide (2016) 1080p Latino

    2016
    Collide (2016) 1080p Latino

    0.0 1h 39m 2016

    Descargar Persecucion al limite hd latino. Tambien conocida como Collide 1080p Cuando uno de los atracos...

    Director: Eran Creevy

    Género: Acción

    Actores: Nicholas Hoult

Comentarios 3
  • Jonna - 02 Julio, 2017

    Será posible resuban Códigos de Guerra? Estaba accediendo a los links de Uptobox, 1fichier, openload muertos, Los primeros 5 de MEGA en Línea pero al llegar al 6to me sale “Error in exception handler.” Gracias

    • dpelis

      Administrador
      - 02 Julio, 2017

      dejar link para verificar si hay respaldo

      • Jonna - 03 Julio, 2017

        http://www.descagarpeliculas.org/ codigos-de-guerra-2002-full-hd-1080p-latino-ingles (deje el espacio en “codigo” porque creo q no publica el link, es la parte 7 mega “http:// shink.in/redirect/sgo/CX1q5”