Advertise here

The Walking Dead (2017) Temporada 8 WEBDL 1080p Latino

4.782 vistas
1 estrella2 estrellas3 estrellas4 estrellas5 estrellas (1 votos, promedio: 5,00 de 5)
Cargando…

Información de The Walking Dead (2017) Temporada 8 WEBDL 1080p Latino

Datos de la película

  • Calidad: WEBDL
  • Audio: Se especifica abajo de la Sinopsis
  • Subtitulos: Español Latino SRT
  • Resolución: 1920x1080p
  • Formato: MKV
  • Codec: H.264
  • Encoder: Dpelis
  • Mediainfo: Clic para Mostrar Datos Ver
  • The Walking Dead S08E01 Webdl 1080p latino.mkv
    Format                      : Matroska
    Format version              : Version 4 / Version 2
    File size                   : 1.44 GiB
    Duration                    : 47 min 14 s
    Overall bit rate            : 4 354 kb/s
    Movie name                  : DPeliculasHDMega.ORG
    Encoded date                : UTC 2017-10-23 13:55:16 / UTC 2017-10-23T13:02:35Z
    Writing application         : mkvmerge v10.0.0 ('To Drown In You') 64bit
    Writing library             : libebml v1.3.4 + libmatroska v1.4.5 / Lavf57.7.2

    Video
    ID                          : 1
    Format                      : AVC
    Format/Info                 : Advanced Video Codec
    Format profile              : [email protected]
    Format settings, CABAC      : Yes
    Format settings, RefFrames  : 4 frames
    Codec ID                    : V_MPEG4/ISO/AVC
    Duration                    : 47 min 14 s
    Bit rate                    : 3 500 kb/s
    Width                       : 1 920 pixels
    Height                      : 1 080 pixels
    Display aspect ratio        : 16:9
    Frame rate mode             : Constant
    Frame rate                  : 23.976 (24000/1001) FPS
    Color space                 : YUV
    Chroma subsampling          : 4:2:0
    Bit depth                   : 8 bits
    Scan type                   : Progressive
    Bits/(Pixel*Frame)          : 0.070
    Stream size                 : 1.11 GiB (77%)
    Writing library             : x264 core 148 r2708 86b7198
    Encoding settings           : cabac=1 / ref=4 / deblock=1:0:0 / analyse=0x3:0x113 / me=umh / subme=8 / psy=1 / psy_rd=1.00:0.00 / mixed_ref=1 / me_range=16 / chroma_me=1 / trellis=1 / 8x8dct=1 / cqm=0 / deadzone=21,11 / fast_pskip=1 / chroma_qp_offset=-2 / threads=34 / lookahead_threads=5 / sliced_threads=0 / nr=0 / decimate=1 / interlaced=0 / bluray_compat=0 / constrained_intra=0 / bframes=3 / b_pyramid=2 / b_adapt=2 / b_bias=0 / direct=3 / weightb=1 / open_gop=0 / weightp=2 / keyint=240 / keyint_min=24 / scenecut=40 / intra_refresh=0 / rc_lookahead=50 / rc=abr / mbtree=1 / bitrate=3500 / ratetol=1.0 / qcomp=0.60 / qpmin=0 / qpmax=69 / qpstep=4 / vbv_maxrate=62500 / vbv_bufsize=78125 / nal_hrd=none / filler=0 / ip_ratio=1.40 / aq=1:1.00
    Default                     : Yes
    Forced                      : No
    Color range                 : Limited
    Color primaries             : BT.709
    Transfer characteristics    : BT.709
    Matrix coefficients         : BT.709
    Statistics Tags Issue       : mkvmerge v10.0.0 ('To Drown In You') 64bit 2017-10-23 13:55:16 / mkvmerge v10.0.0 ('To Drown In You') 64bit 2017-10-23 13:55:16 / UTC 2017-10-23T13:02:35Z
    FromStats_BitRate           : 3456532
    FromStats_Duration          : 00:47:14.665000000
    FromStats_FrameCount        : 67964
    FromStats_StreamSize        : 1224763879

    Audio #1
    ID                          : 2
    Format                      : AC-3
    Format/Info                 : Audio Coding 3
    Format settings, Endianness : Big
    Codec ID                    : A_AC3
    Duration                    : 47 min 14 s
    Bit rate mode               : Constant
    Bit rate                    : 256 kb/s
    Channel(s)                  : 2 channels
    Channel positions           : Front: L R
    Sampling rate               : 48.0 kHz
    Frame rate                  : 31.250 FPS (1536 SPF)
    Bit depth                   : 16 bits
    Compression mode            : Lossy
    Stream size                 : 86.5 MiB (6%)
    Language                    : Spanish
    Service kind                : Complete Main
    Default                     : Yes
    Forced                      : No
    Statistics Tags Issue       : mkvmerge v10.0.0 ('To Drown In You') 64bit 2017-10-23 13:55:16 / mkvmerge v10.0.0 ('To Drown In You') 64bit 2017-10-23 13:55:16 / UTC 2017-10-23T13:02:35Z
    FromStats_BitRate           : 256000
    FromStats_Duration          : 00:47:14.816000000
    FromStats_FrameCount        : 88588
    FromStats_StreamSize        : 90714112

    Audio #2
    ID                          : 3
    Format                      : E-AC-3
    Format/Info                 : Enhanced Audio Coding 3
    Format settings, Endianness : Big
    Codec ID                    : A_EAC3
    Duration                    : 47 min 14 s
    Bit rate mode               : Constant
    Bit rate                    : 640 kb/s
    Channel(s)                  : 6 channels
    Channel positions           : Front: L C R, Side: L R, LFE
    Sampling rate               : 48.0 kHz
    Frame rate                  : 187.500 FPS (256 SPF)
    Compression mode            : Lossy
    Stream size                 : 216 MiB (15%)
    Title                       : Surround
    Language                    : English
    Service kind                : Complete Main
    Default                     : No
    Forced                      : No
    Statistics Tags Issue       : mkvmerge v10.0.0 ('To Drown In You') 64bit 2017-10-23 13:55:16 / mkvmerge v10.0.0 ('To Drown In You') 64bit 2017-10-23 13:55:16 / UTC 2017-10-23T13:02:35Z
    FromStats_BitRate           : 640000
    FromStats_Duration          : 00:47:14.624000000
    FromStats_FrameCount        : 88582
    FromStats_StreamSize        : 226769920

    Text
    ID                          : 4
    Format                      : UTF-8
    Codec ID                    : S_TEXT/UTF8
    Codec ID/Info               : UTF-8 Plain Text
    Language                    : Spanish
    Default                     : Yes
    Forced                      : No
    Statistics Tags Issue       : mkvmerge v10.0.0 ('To Drown In You') 64bit 2017-10-23 13:55:16 / mkvmerge v10.0.0 ('To Drown In You') 64bit 2017-10-23 13:55:16 / UTC 2017-10-23T13:02:35Z
    FromStats_BitRate           : 27
    FromStats_Duration          : 00:44:57.527000000
    FromStats_FrameCount        : 350
    FromStats_StreamSize        : 9426

  • Peso: 1.50 Gb (4 Capitulo Disponible) Cada Lunes Nuevo Capitulo

Sinopsis

Rick, Maggie y Ezekiel reúnen a sus comunidades para derrotar a Negan y los salvadores. Gregory intenta que los residentes de Hilltop se pongan de parte de Negan, pero todos se mantienen firmemente detrás de Maggie. Usando una gran manada de caminantes liderados por Carol, Daryl, Morgan y Tara, el grupo embosca el Santuario, derribando sus vallas e inundando el recinto con caminantes. Con el Santuario en llamas y los salvadores abandonados para morir, los grupos de Rick, Maggie y Ezekiel se van; Gabriel salva a regañadientes a Gregory, pero se queda atrás después de que Gregory lo abandona. Rodeado de caminantes, Gabriel se esconde en un remolque, donde está atrapado dentro de Negan.

 

Español Latino AC3 2.0 (Capturado) – Ingles AC3 5.1 ( Amazon)

 

Creditos: BryanTV por el Audio Latino

Ficha técnica

Video trailer de la película

Enlaces de descarga

Descargar The Walking Dead (2017) Temporada 8 WEBDL 1080p Latino
Descargar

dpeliculas

Aportes de DPeliculasHDmega la pass es:dpeliculashdmega.org Aportes de CinemaniaHD la pass es:cinemaniahdd.com

Películas relacionadas

  • Lo que de verdad importa (2017) Full 1080p Latino

    2017
    Lo que de verdad importa (2017) Full 1080p Latino

    0.0 1 h 48 min 2017

    Alex vive en Inglaterrra, trabaja arreglando aparatos eléctricos en una empresa que no va bien económicamente,...

    Director: Paco Arango

    Género: Castellano

    Actores: Suresh John

  • Open Water 3 (2017) 1080p Latino

    2017
    Open Water 3 (2017) 1080p Latino

    0.0 1 h 20 min 2017

    Tres amigos viajan a Australia con la intención de grabar un vídeo buceando entre tiburones, que les...

    Director: Gerald Rascionato

    Género: Drama

    Actores: Tara Wraith

  • El vagón de la muerte (2008) UNRATED Full 1080p Latino

    2008
    El vagón de la muerte (2008) UNRATED Full 1080p Latino

    0.0 1 h 42 min 2008

    La dueña de una exitosa galería de arte le propone al fotógrafo Leon Kauffman llevar a cabo un trabajo...

    Director: Ryûhei Kitamura

    Género: Crimen

    Actores: Vinnie Jones

  • Marvel’s The Punisher (2017) WEB-DL 1080p Latino

    2017
    Marvel’s The Punisher (2017) WEB-DL 1080p Latino

    5.0 51 min 2017

    Frank Castle, conocido por las calles de Nueva York como 'el Castigador', busca venganza contra los responsables...

    Director: Steve Lightfoot

    Género: Crimen

    Actores: Paul Schulze

Comentarios 19
  • Chaka - 13 noviembre, 2017

    Ya no me funciona el protector de enlaces, no quiero dejar mi pagina favorita solo por eso D:

    • dpelis

      Administrador
      - 13 noviembre, 2017

      hola estimado
      recomiendo usar la extencion hola para chrome y cambiar ip. saludos

  • Luis - 08 noviembre, 2017

    Hola Gracias por los capitulos pero el 03 tiene 9 minutos de video con audio desfasado del 26 al 35, Ojala lo reparen.

    • dpelis

      Administrador
      - 13 noviembre, 2017

      REparado estimado

  • Dr. Smith - 07 noviembre, 2017

    Desgraciadamente el capítulo 03 tiene el audio latino desfasado
    a partir del minuto 26. Ojalá en una nueva entrega, se arregle.

    Gracias.

    • Dr. Smith - 07 noviembre, 2017

      El audio se corrige en el minuto 35.

      • Dpelis2 pelis2

        Autor
        - 07 noviembre, 2017

        gracias

    • dpelis

      Administrador
      - 13 noviembre, 2017

      REparado estimado

  • sonieven - 04 noviembre, 2017

    saludos a todos ,.esta es la pagina mas power… q hay ,.,,.asi tenga publicidad,.acortadores.,,.lo q seas,.,.,al fin al cabo ,,.,.,,,,.,,esta pagina es la mejor ,.,saludos a todossss ,.,gracias x los aportes

  • gaston - 31 octubre, 2017

    gracias x los aportes y los servidores google drive la verdad son rapidos!!

  • danthor - 25 octubre, 2017

    subirar las otras temporadas??

    • dpelis

      Administrador
      - 25 octubre, 2017

      si mas adelante

  • Javier Zurita Cruz - 24 octubre, 2017

    Ya no se puede bajar nada, demasiada publicidad y después de intentar muchas veces acceder a los links de mega jamas pude, con ningún navegador! Lastima de web!

    • dpelis

      Administrador
      - 24 octubre, 2017

      el problema que no siguen los pasos, de la publicidad se mantiene la web, itunes o paginas de bluray no nos da gratis. Cada pelicula itunes cuesta 20 USD asi que hay que ver de donde se sacan fichas. saludos

    • Slash - 25 octubre, 2017

      Jejejejeje, ¿es enserio este comentario?, discúlpeme pero tendré que contradecirlo, cuando usted llega al “paste” o sitio donde se encuentran las ligas a los enlaces usted solo tiene que hacer un click en ouo y lo mandara directo al enlace, no se porque ese afan de las personas de desprestigiar algo cuando no les sale a ellos mismos o en este caso a usted.

      Le recomendaría adquirir los Blu-rays en su centro de distribución preferido, y en caso de querer ver una serie le recomendaría suscribirse a FOX, HBO o Netflix (por citar algunos ejemplos) y así se evita este “TERRIBLE INFIERNO” de dar clicks con alguna de sus manos.

    • Alfredo - 31 octubre, 2017

      Lastima de web, pero que hdp jajaja, a lo sumo uno o dos clicks en publicidades y en mi caso al menos uno o nada y me salen los links para descargar del mejor servidor google drive 🙂 lastima de comentario el tuyo amigo, como esta web dudo encuentres, los primeros en audio latino por lejos para los que no nos gusta leer xD

  • Alfredo - 23 octubre, 2017

    Hola, no leo en los detalles pero esto seria la nueva temporada que arranco ahora? La 8va para ser mas exactos?

    • dpelis

      Administrador
      - 24 octubre, 2017

      es correcto. agregado , se me olvido colocar temporada

  • iDeztrukxion - 23 octubre, 2017

    muchas gracias por el cap! =D