The Recall (2017) Webdl 1080p Latino

1.353 vistas
1 estrella2 estrellas3 estrellas4 estrellas5 estrellas (Ninguna valoración todavía)
Cargando…

Información de The Recall (2017) Webdl 1080p Latino

Datos de la película

  • Calidad: WEBDL
  • Audio: Español Latino AC3 2.0 iTunes - Ingles AC3 5.1 iTunes
  • Subtitulos: Español Latino SRT - Ingles SRT
  • Resolución: 1904x792p
  • Formato: MKV
  • Codec: H.264
  • Encoder: Dpelis
  • Mediainfo: Ver Ver
  • The Recall 2017 1080p WEB-DL Latino.mkv
    Format                      : Matroska
    Format version              : Version 4 / Version 2
    File size                   : 3.27 GiB
    Duration                    : 1 h 31 min
    Overall bit rate            : 5 148 kb/s
    Movie name                  : DPeliculasHDMega.ORG
    Encoded date                : UTC 2017-08-10 04:32:55
    Writing application         : mkvmerge v10.0.0 ('To Drown In You') 64bit
    Writing library             : libebml v1.3.4 + libmatroska v1.4.5
    Cover                       : Yes
    Attachments                 : cover.jpg / cover_land.jpg / small_cover.jpg / small_cover_land.jpg

    Video
    ID                          : 1
    Format                      : AVC
    Format/Info                 : Advanced Video Codec
    Format profile              : [email protected]
    Format settings, CABAC      : Yes
    Format settings, ReFrames   : 5 frames
    Codec ID                    : V_MPEG4/ISO/AVC
    Duration                    : 1 h 31 min
    Bit rate                    : 4 569 kb/s
    Width                       : 1 904 pixels
    Height                      : 792 pixels
    Display aspect ratio        : 2.40:1
    Frame rate mode             : Constant
    Frame rate                  : 23.976 (23976/1000) FPS
    Color space                 : YUV
    Chroma subsampling          : 4:2:0
    Bit depth                   : 8 bits
    Scan type                   : Progressive
    Bits/(Pixel*Frame)          : 0.126
    Stream size                 : 2.91 GiB (89%)
    Title                       : The.Recall.2017.1080p.WEB-DL.DD5.1.H264-FGT
    Language                    : English
    Default                     : Yes
    Forced                      : No
    Color range                 : Limited
    Color primaries             : BT.709
    Transfer characteristics    : BT.709
    Matrix coefficients         : BT.709

    Audio #1
    ID                          : 2
    Format                      : AC-3
    Format/Info                 : Audio Coding 3
    Format settings, Endianness : Big
    Codec ID                    : A_AC3
    Duration                    : 1 h 31 min
    Bit rate mode               : Constant
    Bit rate                    : 192 kb/s
    Channel(s)                  : 2 channels
    Channel positions           : Front: L R
    Sampling rate               : 48.0 kHz
    Frame rate                  : 31.250 FPS (1536 spf)
    Bit depth                   : 16 bits
    Compression mode            : Lossy
    Delay relative to video     : -42 ms
    Stream size                 : 125 MiB (4%)
    Language                    : Spanish
    Service kind                : Complete Main
    Default                     : Yes
    Forced                      : No

    Audio #2
    ID                          : 3
    Format                      : AC-3
    Format/Info                 : Audio Coding 3
    Format settings, Endianness : Big
    Codec ID                    : A_AC3
    Duration                    : 1 h 31 min
    Bit rate mode               : Constant
    Bit rate                    : 384 kb/s
    Channel(s)                  : 6 channels
    Channel positions           : Front: L C R, Side: L R, LFE
    Sampling rate               : 48.0 kHz
    Frame rate                  : 31.250 FPS (1536 spf)
    Bit depth                   : 16 bits
    Compression mode            : Lossy
    Delay relative to video     : -42 ms
    Stream size                 : 250 MiB (7%)
    Language                    : English
    Service kind                : Complete Main
    Default                     : No
    Forced                      : No

    Text #1
    ID                          : 4
    Format                      : UTF-8
    Codec ID                    : S_TEXT/UTF8
    Codec ID/Info               : UTF-8 Plain Text
    Duration                    : 1 h 24 min
    Bit rate                    : 39 b/s
    Count of elements           : 840
    Stream size                 : 24.7 KiB (0%)
    Language                    : English
    Default                     : Yes
    Forced                      : No

    Text #2
    ID                          : 5
    Format                      : UTF-8
    Codec ID                    : S_TEXT/UTF8
    Codec ID/Info               : UTF-8 Plain Text
    Duration                    : 1 h 26 min
    Bit rate                    : 43 b/s
    Count of elements           : 935
    Stream size                 : 27.6 KiB (0%)
    Language                    : Spanish
    Default                     : No
    Forced                      : No

    Menu
    00:00:00.000                : en:Opening Sequence
    00:05:56.000                : en:Mysterious Truck
    00:11:34.000                : en:Girl On Your Phone
    00:17:31.000                : en:Strange Weather
    00:22:36.000                : en:Hot Tub Party
    00:28:31.000                : en:What's Wrong With Her?
    00:34:23.000                : en:Get To The Garage
    00:39:25.000                : en:Something In The Trees
    00:45:54.000                : en:Stop Whining
    00:51:51.000                : en:Forty Eight Hours Later
    00:56:57.000                : en:Deep In Thought
    01:03:26.000                : en:The Lake's Too Exposed
    01:09:45.000                : en:Finding His Friends
    01:14:59.000                : en:A New Day
    01:20:21.000                : en:Roadblock
    01:25:50.000                : en:End Credits

  • Peso: 3.27 GB

Sinopsis

The Recall empieza como si de un slasher juvenil se tratase, con un grupo de amigos de vacaciones en una cabaña aislada en medio del bosque, cuando de repente atacan los aliens. Allí se toparán con un misterioso cazador que ya predijo la llegada de los alienígenas, y que los ayudará a escapar.

Ficha técnica

  • Titulo original: The Recall
  • Fecha de lanzamiento: 02-06-2017 (Canada)
  • Director: Mauro Borreli
  • Género: Ciencia ficción
  • Puntuación: 0.0 0 votos
  • Duración:
    1h 31m

Imágenes, Capturas de la película

Video trailer de la película

Enlaces de descarga

Descargar The Recall (2017) Webdl 1080p Latino
Descargar

dpeliculas

Aportes de DPeliculasHDmega la pass es:dpeliculashdmega.org Aportes de CinemaniaHD la pass es:cinemaniahdd.com
Guardado en : Ciencia ficción

PelícuDelas relacionadas

  • Orbita 9 (2017) Full 1080p Castellano

    2017
    Orbita 9 (2017) Full 1080p Castellano

    3.7 1h 35m 2017

    Helena (Clara Lago) lleva preparándose para una misión de supervivencia desde que nació. Aunque ella...

    Director: Hatem Khraiche Ruiz-Zorilla

    Género: Castellano

    Actores: Kristina Lilley

  • Guardianes de la galaxia Vol. 2 (2017) 1080p Latino

    2017
    Guardianes de la galaxia Vol. 2 (2017) 1080p Latino

    4.7 2h 17m 2017

    Al fin de larga esperar podremos disfrutar de Guardianes de la Galaxia Parte 2 1080p Latino El singular...

    Director: Martin Kitrosser

    Género: Acción

    Actores: Zoe Saldana

  • Alien Covenant (2017) 1080p Full 1080p Latino

    2017
    Alien Covenant (2017) 1080p Full 1080p Latino

    3.0 2h 2m 2017

    Descargar gratis Alien: Covenant (2017) 1080p  Latino. Rumbo a un remoto planeta en el lado lejano de...

    Director: Scott Lovelock

    Género: Ciencia ficción

    Actores: Uli Latukefu

  • Alien: Covenant (2017) 1080p Latino

    2017
    Alien: Covenant (2017) 1080p Latino

    4.0 2h 2m 2017

    Descargar gratis Alien: Covenant (2017) 1080p Latino. Rumbo a un remoto planeta al otro lado de la galaxia,...

    Director: Scott Lovelock

    Género: Ciencia ficción

    Actores: Uli Latukefu

Comentarios 4
  • seba - 11 Agosto, 2017

    cuándo en caratula gris ???

    • dpelis

      Administrador
      - 11 Agosto, 2017

      aun no hay fecha.

  • grodryq - 10 Agosto, 2017

    mucha publicidad, uno le da ir al enlace despues de abrir infinidad de publicidad y aparecen mas

    • dpelis

      Administrador
      - 10 Agosto, 2017

      no se queje estimado ademas no es publicidad ofensiva. o virus.