The Precipice Game (2016) WEBDL 720p Latino

879 vistas
1 estrella2 estrellas3 estrellas4 estrellas5 estrellas (Ninguna valoración todavía)
Cargando…

Información de The Precipice Game (2016) WEBDL 720p Latino

Datos de la película

  • Calidad: WEBDL
  • Audio: Se especifica abajo de la Sinopsis
  • Subtitulos: Español Latino SRT - Ingles SRT
  • Resolución: 1280x536
  • Formato: MKV
  • Codec: H.264
  • Encoder: Dpelis
  • Mediainfo: Ver Ver
  • The precipice game 2016 WEBDL 720p Latino.mkv
    Format                      : Matroska
    Format version              : Version 4 / Version 2
    File size                   : 1.46 GiB
    Duration                    : 1 h 29 min
    Overall bit rate            : 2 342 kb/s
    Movie name                  : DPeliculasHDMega.org
    Encoded date                : UTC 2017-06-19 22:19:30 / UTC 2017-06-19T21:16:50Z
    Writing application         : mkvmerge v10.0.0 ('To Drown In You') 64bit
    Writing library             : libebml v1.3.4 + libmatroska v1.4.5 / Lavf57.7.2

    Video
    ID                          : 1
    Format                      : AVC
    Format/Info                 : Advanced Video Codec
    Format profile              : [email protected]
    Format settings, CABAC      : Yes
    Format settings, ReFrames   : 4 frames
    Codec ID                    : V_MPEG4/ISO/AVC
    Duration                    : 1 h 29 min
    Bit rate                    : 1 700 kb/s
    Width                       : 1 280 pixels
    Height                      : 536 pixels
    Display aspect ratio        : 2.40:1
    Frame rate mode             : Constant
    Frame rate                  : 23.976 (24000/1001) FPS
    Color space                 : YUV
    Chroma subsampling          : 4:2:0
    Bit depth                   : 8 bits
    Scan type                   : Progressive
    Bits/(Pixel*Frame)          : 0.103
    Stream size                 : 1.03 GiB (71%)
    Writing library             : x264 core 148 r2708 86b7198
    Encoding settings           : cabac=1 / ref=3 / deblock=1:0:0 / analyse=0x3:0x113 / me=hex / subme=7 / psy=1 / psy_rd=1.00:0.00 / mixed_ref=1 / me_range=16 / chroma_me=1 / trellis=1 / 8x8dct=1 / cqm=0 / deadzone=21,11 / fast_pskip=1 / chroma_qp_offset=-2 / threads=17 / lookahead_threads=2 / sliced_threads=0 / nr=0 / decimate=1 / interlaced=0 / bluray_compat=0 / constrained_intra=0 / bframes=3 / b_pyramid=2 / b_adapt=1 / b_bias=0 / direct=1 / weightb=1 / open_gop=0 / weightp=2 / keyint=240 / keyint_min=24 / scenecut=40 / intra_refresh=0 / rc_lookahead=40 / rc=2pass / mbtree=1 / bitrate=1700 / ratetol=1.0 / qcomp=0.60 / qpmin=0 / qpmax=69 / qpstep=4 / cplxblur=20.0 / qblur=0.5 / vbv_maxrate=62500 / vbv_bufsize=78125 / nal_hrd=none / filler=0 / ip_ratio=1.40 / aq=1:1.00
    Default                     : Yes
    Forced                      : No
    Color range                 : Limited
    Color primaries             : BT.709
    Transfer characteristics    : BT.709
    Matrix coefficients         : BT.709
    Statistics Tags Issue       : mkvmerge v10.0.0 ('To Drown In You') 64bit 2017-06-19 22:19:30 / mkvmerge v10.0.0 ('To Drown In You') 64bit 2017-06-19 22:19:30 / UTC 2017-06-19T21:16:50Z
    FromStats_BitRate           : 1700242
    FromStats_Duration          : 01:29:02.296000000
    FromStats_FrameCount        : 128087
    FromStats_StreamSize        : 1135399899

    Audio #1
    ID                          : 2
    Format                      : AC-3
    Format/Info                 : Audio Coding 3
    Format settings, Endianness : Big
    Codec ID                    : A_AC3
    Duration                    : 1 h 29 min
    Bit rate mode               : Constant
    Bit rate                    : 256 kb/s
    Channel(s)                  : 6 channels
    Channel positions           : Front: L C R, Side: L R, LFE
    Sampling rate               : 48.0 kHz
    Frame rate                  : 31.250 FPS (1536 spf)
    Bit depth                   : 16 bits
    Compression mode            : Lossy
    Delay relative to video     : -5 ms
    Stream size                 : 163 MiB (11%)
    Title                       : Surround
    Language                    : Spanish
    Service kind                : Complete Main
    Default                     : Yes
    Forced                      : No
    Statistics Tags Issue       : mkvmerge v10.0.0 ('To Drown In You') 64bit 2017-06-19 22:19:30 / mkvmerge v10.0.0 ('To Drown In You') 64bit 2017-06-19 22:19:30 / UTC 2017-06-19T21:16:50Z
    FromStats_BitRate           : 256000
    FromStats_Duration          : 01:29:02.272000000
    FromStats_FrameCount        : 166946
    FromStats_StreamSize        : 170952704

    Audio #2
    ID                          : 3
    Format                      : AC-3
    Format/Info                 : Audio Coding 3
    Format settings, Endianness : Big
    Codec ID                    : A_AC3
    Duration                    : 1 h 29 min
    Bit rate mode               : Constant
    Bit rate                    : 384 kb/s
    Channel(s)                  : 6 channels
    Channel positions           : Front: L C R, Side: L R, LFE
    Sampling rate               : 48.0 kHz
    Frame rate                  : 31.250 FPS (1536 spf)
    Bit depth                   : 16 bits
    Compression mode            : Lossy
    Delay relative to video     : -5 ms
    Stream size                 : 245 MiB (16%)
    Title                       : Surround
    Language                    : Chinese
    Service kind                : Complete Main
    Default                     : No
    Forced                      : No
    Statistics Tags Issue       : mkvmerge v10.0.0 ('To Drown In You') 64bit 2017-06-19 22:19:30 / mkvmerge v10.0.0 ('To Drown In You') 64bit 2017-06-19 22:19:30 / UTC 2017-06-19T21:16:50Z
    FromStats_BitRate           : 384000
    FromStats_Duration          : 01:29:02.272000000
    FromStats_FrameCount        : 166946
    FromStats_StreamSize        : 256429056

    Text #1
    ID                          : 4
    Format                      : UTF-8
    Codec ID                    : S_TEXT/UTF8
    Codec ID/Info               : UTF-8 Plain Text
    Language                    : Spanish
    Default                     : Yes
    Forced                      : No
    Statistics Tags Issue       : mkvmerge v10.0.0 ('To Drown In You') 64bit 2017-06-19 22:19:30 / mkvmerge v10.0.0 ('To Drown In You') 64bit 2017-06-19 22:19:30 / UTC 2017-06-19T21:16:50Z
    FromStats_BitRate           : 27
    FromStats_Duration          : 01:21:38.819000000
    FromStats_FrameCount        : 785
    FromStats_StreamSize        : 16550

    Text #2
    ID                          : 5
    Format                      : UTF-8
    Codec ID                    : S_TEXT/UTF8
    Codec ID/Info               : UTF-8 Plain Text
    Language                    : English
    Default                     : No
    Forced                      : No
    Statistics Tags Issue       : mkvmerge v10.0.0 ('To Drown In You') 64bit 2017-06-19 22:19:30 / mkvmerge v10.0.0 ('To Drown In You') 64bit 2017-06-19 22:19:30 / UTC 2017-06-19T21:16:50Z
    FromStats_BitRate           : 31
    FromStats_Duration          : 01:22:16.829000000
    FromStats_FrameCount        : 644
    FromStats_StreamSize        : 19724

    Menu
    00:00:00.209                : :Chapter 1
    00:04:59.508                : :Chapter 2
    00:09:59.808                : :Chapter 3
    00:15:00.108                : :Chapter 4
    00:20:00.408                : :Chapter 5
    00:25:00.708                : :Chapter 6
    00:29:59.006                : :Chapter 7
    00:35:00.307                : :Chapter 8
    00:39:59.606                : :Chapter 9
    00:44:59.906                : :Chapter 10
    00:50:00.206                : :Chapter 11
    00:55:00.506                : :Chapter 12
    01:00:00.806                : :Chapter 13
    01:05:00.105                : :Chapter 14
    01:09:59.404                : :Chapter 15
    01:14:59.704                : :Chapter 16
    01:20:00.004                : :Chapter 17
    01:25:00.304                : :Chapter 18

  • Peso: 1.46 GB

Sinopsis

Liu Chenchen, una joven de espíritu libre, se rebela contra su familia adinerada y elopes con su novio para unirse a una cacería de tesoros de cruceros. Pero lo que comenzó como un juego inocente con promesas de gran recompensa pronto se convierte en una batalla por la supervivencia cuando los concursantes son arrojados a un misterioso mundo de intriga y caos en medio del mar. Liu se basa sólo en su ingenio y sus nuevos amigos para sobrevivir, todo el tiempo desmascarar a los enemigos y aprender que nada es lo que parece. Pero como sus compañeros son atacados uno por uno, Liu debe hacer todo lo posible para escapar.

 

Español Latino 5.1 – Chino AC3 5.1

Ficha técnica

  • Titulo original: The Precipice Game
  • Fecha de lanzamiento: 01-07-2016 (China)
  • Género: Terror
  • Puntuación: 0.0 0 votos
  • Duración:
    0h 0m

Imágenes, Capturas de la película

Video trailer de la película

Enlaces de descarga

Descargar
Descargar The Precipice Game (2016) WEBDL 720p Latino

dpeliculas

Aportes de DPeliculasHDmega la pass es:dpeliculashdmega.org Aportes de CinemaniaHD la pass es:cinemaniahdd.com
Guardado en : Terror

PelícuDelas relacionadas

  • La momia (2017) Webdl 1080p Latino

    2017
    La momia (2017) Webdl 1080p Latino

    4.0 1h 50m 2017

    Descargar La momia 2017 1080p webdl  Latino, esta pelicula estara disponible con audio latino final...

    Director: Jo Beckett

    Género: Acción

    Actores: Vera Chok

  • Silent Hill (2006) Open Matte 1080p Web-DL Latino

    2006
    Silent Hill (2006) Open Matte 1080p Web-DL Latino

    5.0 2h 5m 2006

    Descargar gratis Silent Hill (2006) Open Matte 1080p Web-DL Latino. Rose, desesperada por encontrar una...

    Director: Christophe Gans

    Género: Misterio

    Actores: Tanya Allen

  • El exterminador (2016) 1080p Latino

    2016
    El exterminador (2016) 1080p Latino

    0.0 1h 31m 2016

    Un científico con la capacidad de entrar en las subconscientes mentes de los poseídos debe salvar a...

    Director: Renetta G. Amador

    Género: Suspense

    Actores: Vera Miao

Comentarios 2
  • Carlo - 20 Junio, 2017

    La pelicula inicia ya comenzada, le faltan minutos al comienzo, no se exactamente cuantos