The House (2017) 1080p Latino

992 vistas
1 estrella2 estrellas3 estrellas4 estrellas5 estrellas (Ninguna valoración todavía)
Cargando…

Información de The House (2017) 1080p Latino

Datos de la película

  • Calidad: 1080p
  • Audio: Español Latino AC3 5.1 DVD - Ingles AC3 5.1 BLURAY
  • Subtitulos: No
  • Resolución: 1920x800p
  • Formato: MKV
  • Codec: H.264
  • Encoder: Dpelis
  • Mediainfo: Ver Ver
  • The House (2017) 1080p Latino.mkv
    Format                      : Matroska
    Format version              : Version 4 / Version 2
    File size                   : 2.63 GiB
    Duration                    : 1 h 28 min
    Overall bit rate            : 4 267 kb/s
    Movie name                  : DPeliculasHDMega.ORG
    Encoded date                : UTC 2017-09-26 21:24:09 / UTC 2017-09-26T19:20:55Z
    Writing application         : mkvmerge v10.0.0 ('To Drown In You') 64bit
    Writing library             : libebml v1.3.4 + libmatroska v1.4.5 / Lavf57.7.2

    Video
    ID                          : 1
    Format                      : AVC
    Format/Info                 : Advanced Video Codec
    Format profile              : [email protected]
    Format settings, CABAC      : Yes
    Format settings, RefFrames  : 4 frames
    Codec ID                    : V_MPEG4/ISO/AVC
    Duration                    : 1 h 28 min
    Bit rate                    : 3 500 kb/s
    Width                       : 1 920 pixels
    Height                      : 800 pixels
    Display aspect ratio        : 2.40:1
    Frame rate mode             : Constant
    Frame rate                  : 23.976 (24000/1001) FPS
    Color space                 : YUV
    Chroma subsampling          : 4:2:0
    Bit depth                   : 8 bits
    Scan type                   : Progressive
    Bits/(Pixel*Frame)          : 0.095
    Stream size                 : 2.10 GiB (80%)
    Writing library             : x264 core 148 r2708 86b7198
    Encoding settings           : cabac=1 / ref=3 / deblock=1:0:0 / analyse=0x3:0x113 / me=hex / subme=7 / psy=1 / psy_rd=1.00:0.00 / mixed_ref=1 / me_range=16 / chroma_me=1 / trellis=1 / 8x8dct=1 / cqm=0 / deadzone=21,11 / fast_pskip=1 / chroma_qp_offset=-2 / threads=12 / lookahead_threads=2 / sliced_threads=0 / nr=0 / decimate=1 / interlaced=0 / bluray_compat=0 / constrained_intra=0 / bframes=3 / b_pyramid=2 / b_adapt=1 / b_bias=0 / direct=1 / weightb=1 / open_gop=0 / weightp=2 / keyint=240 / keyint_min=24 / scenecut=40 / intra_refresh=0 / rc_lookahead=40 / rc=2pass / mbtree=1 / bitrate=3500 / ratetol=1.0 / qcomp=0.60 / qpmin=0 / qpmax=69 / qpstep=4 / cplxblur=20.0 / qblur=0.5 / vbv_maxrate=62500 / vbv_bufsize=78125 / nal_hrd=none / filler=0 / ip_ratio=1.40 / aq=1:1.00
    Default                     : Yes
    Forced                      : No
    Color range                 : Limited
    Color primaries             : BT.709
    Transfer characteristics    : BT.709
    Matrix coefficients         : BT.709
    Statistics Tags Issue       : mkvmerge v10.0.0 ('To Drown In You') 64bit 2017-09-26 21:24:09 / mkvmerge v10.0.0 ('To Drown In You') 64bit 2017-09-26 21:24:09 / UTC 2017-09-26T19:20:55Z
    FromStats_BitRate           : 3497123
    FromStats_Duration          : 01:28:09.618000000
    FromStats_FrameCount        : 126824
    FromStats_StreamSize        : 2312306029

    Audio #1
    ID                          : 2
    Format                      : AC-3
    Format/Info                 : Audio Coding 3
    Format settings, Endianness : Big
    Codec ID                    : A_AC3
    Duration                    : 1 h 28 min
    Bit rate mode               : Constant
    Bit rate                    : 384 kb/s
    Channel(s)                  : 6 channels
    Channel positions           : Front: L C R, Side: L R, LFE
    Sampling rate               : 48.0 kHz
    Frame rate                  : 31.250 FPS (1536 SPF)
    Bit depth                   : 16 bits
    Compression mode            : Lossy
    Delay relative to video     : -5 ms
    Stream size                 : 242 MiB (9%)
    Language                    : Spanish
    Service kind                : Complete Main
    Default                     : Yes
    Forced                      : No
    Statistics Tags Issue       : mkvmerge v10.0.0 ('To Drown In You') 64bit 2017-09-26 21:24:09 / mkvmerge v10.0.0 ('To Drown In You') 64bit 2017-09-26 21:24:09 / UTC 2017-09-26T19:20:55Z
    FromStats_BitRate           : 384000
    FromStats_Duration          : 01:28:09.792000000
    FromStats_FrameCount        : 165306
    FromStats_StreamSize        : 253910016

    Audio #2
    ID                          : 3
    Format                      : AC-3
    Format/Info                 : Audio Coding 3
    Format settings, Endianness : Big
    Codec ID                    : A_AC3
    Duration                    : 1 h 28 min
    Bit rate mode               : Constant
    Bit rate                    : 384 kb/s
    Channel(s)                  : 6 channels
    Channel positions           : Front: L C R, Side: L R, LFE
    Sampling rate               : 48.0 kHz
    Frame rate                  : 31.250 FPS (1536 SPF)
    Bit depth                   : 16 bits
    Compression mode            : Lossy
    Delay relative to video     : -5 ms
    Stream size                 : 242 MiB (9%)
    Title                       : Surround
    Language                    : English
    Service kind                : Complete Main
    Default                     : No
    Forced                      : No
    Statistics Tags Issue       : mkvmerge v10.0.0 ('To Drown In You') 64bit 2017-09-26 21:24:09 / mkvmerge v10.0.0 ('To Drown In You') 64bit 2017-09-26 21:24:09 / UTC 2017-09-26T19:20:55Z
    FromStats_BitRate           : 384000
    FromStats_Duration          : 01:28:09.632000000
    FromStats_FrameCount        : 165301
    FromStats_StreamSize        : 253902336

    Menu
    00:00:00.000                : :00:00:00.000
    00:10:59.159                : :00:10:59.158
    00:22:00.945                : :00:22:00.945
    00:33:55.784                : :00:33:55.784
    00:43:26.562                : :00:43:26.562
    00:53:02.262                : :00:53:02.262
    01:02:37.921                : :01:02:37.921
    01:11:05.762                : :01:11:05.761
    01:20:32.328                : :01:20:32.327

  • Peso: 2.63 GB

Sinopsis

Una matrimonio se gasta los ahorros que tenían previstos para pagar la universidad de sus hijas, así que para intentar solucionar este grave problema deciden abrir un casino en el sótano de su casa.

 

SOLO AUDIO LATINO BLURAY 5.1 Invluye subtitulos PGS

Ficha técnica

  • Titulo original: The House
  • Fecha de lanzamiento: 29-06-2017 (United States of America)
  • Director: Andrew J. Cohen
  • Género: Comedia
  • Puntuación: 0.0 0 votos
  • Duración:
    1h 28m

Imágenes, Capturas de la película

Video trailer de la película

Enlaces de descarga

Descargar The House (2017) 1080p Latino
Descargar

dpeliculas

Aportes de DPeliculasHDmega la pass es:dpeliculashdmega.org Aportes de CinemaniaHD la pass es:cinemaniahdd.com
Guardado en : Comedia

PelícuDelas relacionadas

  • The Meyerowitz Stories (2017) 1080p Latino

    2017
    The Meyerowitz Stories (2017) 1080p Latino

    0.0 1 h 52 min 2017

    Los tres hijos, ya adultos, de un arisco artista neoyorquino se enfrentan a la difícil relación que...

    Director: Noah Baumbach

    Género: Comedia

    Actores: Victor Cruz

  • Batman vs. Two-Face (2017) Full 1080p Latino

    2017
    Batman vs. Two-Face (2017) Full 1080p Latino

    0.0 1 h 12 min 2017

    En la Penitenciaría de Gotham, en presencia de Batman, Robin y el Fiscal de Distrito Harvey Dent, el...

    Director: Rick Morales

    Género: Acción

    Actores: William Shatner

  • Emoji: La película (2017) Full 1080p Latino

    2017
    Emoji: La película (2017) Full 1080p Latino

    5.0 1 h 26 min 2017

    Dentro de tu teléfono móvil existe todo un mundo secreto nunca antes visto. Oculta tras la aplicación...

    Director: Anthony Leondis

    Género: Animación

    Actores: William Townsend

  • Emoji: La película (2017) 1080p Latino

    2017
    Emoji: La película (2017) 1080p Latino

    1.0 1 h 26 min 2017

    Los protagonistas habitarán la misteriosa tierra de Textopolis, donde todos los emojis favoritos de...

    Director: Anthony Leondis

    Género: Animación

    Actores: William Townsend

Comentarios 5