The Good Catholic (2017) WEBDL 1080p Latino

613 vistas
1 estrella2 estrellas3 estrellas4 estrellas5 estrellas (1 votos, promedio: 2,00 de 5)
Cargando…

Información de The Good Catholic (2017) WEBDL 1080p Latino

Datos de la película

  • Calidad: WEBDL
  • Audio: Español Latino AC3 2.0 iTunes - Ingles AC3 5.1 iTunes
  • Subtitulos: Español Latino SRT - Ingles SRT
  • Resolución: 1916x1008p
  • Formato: MKV
  • Codec: H.264
  • Encoder: Dpelis
  • Mediainfo: Ver Ver
  • The Good Catholic (2017) WEBDL 1080p Latino.mkv
    Format                      : Matroska
    Format version              : Version 4 / Version 2
    File size                   : 3.68 GiB
    Duration                    : 1 h 37 min
    Overall bit rate            : 5 409 kb/s
    Movie name                  : DPeliculasHDMega.ORG
    Encoded date                : UTC 2017-09-08 12:54:11
    Writing application         : mkvmerge v10.0.0 ('To Drown In You') 64bit
    Writing library             : libebml v1.3.4 + libmatroska v1.4.5

    Video
    ID                          : 1
    Format                      : AVC
    Format/Info                 : Advanced Video Codec
    Format profile              : [email protected]
    Format settings, CABAC      : Yes
    Format settings, ReFrames   : 4 frames
    Codec ID                    : V_MPEG4/ISO/AVC
    Duration                    : 1 h 37 min
    Bit rate                    : 4 766 kb/s
    Width                       : 1 916 pixels
    Height                      : 1 008 pixels
    Display aspect ratio        : 1.901
    Frame rate mode             : Constant
    Frame rate                  : 23.976 FPS
    Color space                 : YUV
    Chroma subsampling          : 4:2:0
    Bit depth                   : 8 bits
    Scan type                   : Progressive
    Bits/(Pixel*Frame)          : 0.103
    Stream size                 : 3.24 GiB (88%)
    Language                    : English
    Default                     : Yes
    Forced                      : No
    Color range                 : Limited
    Color primaries             : BT.709
    Transfer characteristics    : BT.709
    Matrix coefficients         : BT.709

    Audio #1
    ID                          : 2
    Format                      : AC-3
    Format/Info                 : Audio Coding 3
    Format settings, Endianness : Big
    Codec ID                    : A_AC3
    Duration                    : 1 h 37 min
    Bit rate mode               : Constant
    Bit rate                    : 256 kb/s
    Channel(s)                  : 2 channels
    Channel positions           : Front: L R
    Sampling rate               : 48.0 kHz
    Frame rate                  : 31.250 FPS (1536 spf)
    Bit depth                   : 16 bits
    Compression mode            : Lossy
    Stream size                 : 178 MiB (5%)
    Language                    : Spanish
    Service kind                : Complete Main
    Default                     : Yes
    Forced                      : No

    Audio #2
    ID                          : 3
    Format                      : AC-3
    Format/Info                 : Audio Coding 3
    Format settings, Endianness : Big
    Codec ID                    : A_AC3
    Duration                    : 1 h 37 min
    Bit rate mode               : Constant
    Bit rate                    : 384 kb/s
    Channel(s)                  : 6 channels
    Channel positions           : Front: L C R, Side: L R, LFE
    Sampling rate               : 48.0 kHz
    Frame rate                  : 31.250 FPS (1536 spf)
    Bit depth                   : 16 bits
    Compression mode            : Lossy
    Stream size                 : 267 MiB (7%)
    Language                    : English
    Service kind                : Complete Main
    Default                     : No
    Forced                      : No

    Text #1
    ID                          : 4
    Format                      : UTF-8
    Codec ID                    : S_TEXT/UTF8
    Codec ID/Info               : UTF-8 Plain Text
    Duration                    : 1 h 32 min
    Bit rate                    : 54 b/s
    Count of elements           : 1177
    Stream size                 : 36.9 KiB (0%)
    Language                    : Spanish
    Default                     : No
    Forced                      : No

    Text #2
    ID                          : 5
    Format                      : UTF-8
    Codec ID                    : S_TEXT/UTF8
    Codec ID/Info               : UTF-8 Plain Text
    Duration                    : 1 h 35 min
    Bit rate                    : 63 b/s
    Count of elements           : 1610
    Stream size                 : 44.1 KiB (0%)
    Language                    : English
    Default                     : No
    Forced                      : No

    Menu
    00:00:00.000                : en:Chapter 1
    00:06:55.000                : en:Chapter 2
    00:11:56.000                : en:Chapter 3
    00:14:44.000                : en:Chapter 4
    00:21:05.000                : en:Chapter 5
    00:25:33.000                : en:Chapter 6
    00:35:58.000                : en:Chapter 7
    00:41:17.000                : en:Chapter 8
    00:48:23.000                : en:Chapter 9
    00:55:11.000                : en:Chapter 10
    00:58:49.000                : en:Chapter 11
    01:02:40.000                : en:Chapter 12
    01:11:52.000                : en:Chapter 13
    01:19:07.000                : en:Chapter 14
    01:25:25.000                : en:Chapter 15
    01:31:21.000                : en:Chapter 16

  • Peso: 3.68 GB

Sinopsis

Daniel amaba su trabajo como sacerdote de un pequeño pueblo más que nada. Entonces conoció a Jane. Que Dios le salve.

Ficha técnica

  • Titulo original: The Good Catholic
  • Fecha de lanzamiento: 08-09-2017
  • Director: Paul Shoulberg
  • Género: Sin categoría
  • Puntuación: 2.0 1 votos
  • Duración:
    1h 36m

Imágenes, Capturas de la película

Video trailer de la película

Enlaces de descarga

Descargar The Good Catholic (2017) WEBDL 1080p Latino
Descargar

dpeliculas

Aportes de DPeliculasHDmega la pass es:dpeliculashdmega.org Aportes de CinemaniaHD la pass es:cinemaniahdd.com
Guardado en : Sin categoría

PelícuDelas relacionadas

  • Juego de Tronos (2016) Temporada 6 Full Latino

    2011/03/17
    Juego de Tronos (2016) Temporada 6 Full Latino

    0.0 60 Min. 2011/03/17

    Descargar gratis Juego de Tronos (2016) Temporada 6 Full Latino Sinopsis capitulo 1: Jon Nieve está...

    Director: David Benioff

    Género: Drama

    Actores: Sophie Turner

  • Shimmer Lake (2017) WEBDL Latino

    2017
    Shimmer Lake (2017) WEBDL Latino

    0.0 1h 26m 2017

    Descargar Shimmer Lake 1080p Latino una pelicula de Netflix,Un robo fallido a un banco, secretos de pueblo...

    Director: Oren Uziel

    Género: Sin categoría

    Actores: Wyatt Russell

  • dolores argentina 1080p

    Dolores (2016) WEBDL Latino

    2016
    Dolores (2016) WEBDL Latino

    0.0 1h 39m 2016

    Descargar Peliculas Dolores WEBDL Latino, es una pelicula Argentina. Dolores cuenta la historia de una...

    Director: Juan Dickinson

    Género: Sin categoría

    Actores: Roberto Birindelli

Comentarios 0