The Diabolical (2016) 1080p Latino

1.342 vistas
1 estrella2 estrellas3 estrellas4 estrellas5 estrellas (Ninguna valoración todavía)
Cargando…

Información de The Diabolical (2016) 1080p Latino

Datos de la película

  • Calidad: 1080p
  • Audio: Español Latino AC3 2.0 DVD - Ingles AC3 5.1 BLURAY
  • Subtitulos: Español Latino SRT - Ingles SRT
  • Resolución: 1920x800p
  • Formato: MKV
  • Codec: H.264
  • Encoder: Dpelis
  • Mediainfo: Ver Ver
  • The.diabolical.2016.1080p.Latino.mkv
    Format                      : Matroska
    Format version              : Version 4 / Version 2
    File size                   : 2.65 GiB
    Duration                    : 1 h 26 min
    Overall bit rate            : 4 380 kb/s
    Movie name                  : DPeliculasHDMega.ORG
    Encoded date                : UTC 2017-07-04 20:25:25 / UTC 2017-07-03T08:14:17Z
    Writing application         : mkvmerge v10.0.0 ('To Drown In You') 64bit
    Writing library             : libebml v1.3.4 + libmatroska v1.4.5 / Lavf57.7.2

    Video
    ID                          : 1
    Format                      : AVC
    Format/Info                 : Advanced Video Codec
    Format profile              : [email protected]
    Format settings, CABAC      : Yes
    Format settings, ReFrames   : 4 frames
    Codec ID                    : V_MPEG4/ISO/AVC
    Duration                    : 1 h 26 min
    Bit rate                    : 3 269 kb/s
    Nominal bit rate            : 3 500 kb/s
    Width                       : 1 920 pixels
    Height                      : 800 pixels
    Display aspect ratio        : 2.40:1
    Frame rate mode             : Constant
    Frame rate                  : 23.976 (24000/1001) FPS
    Color space                 : YUV
    Chroma subsampling          : 4:2:0
    Bit depth                   : 8 bits
    Scan type                   : Progressive
    Bits/(Pixel*Frame)          : 0.089
    Stream size                 : 1.97 GiB (75%)
    Writing library             : x264 core 148 r2708 86b7198
    Encoding settings           : cabac=1 / ref=3 / deblock=1:0:0 / analyse=0x3:0x113 / me=hex / subme=7 / psy=1 / psy_rd=1.00:0.00 / mixed_ref=1 / me_range=16 / chroma_me=1 / trellis=1 / 8x8dct=1 / cqm=0 / deadzone=21,11 / fast_pskip=1 / chroma_qp_offset=-2 / threads=25 / lookahead_threads=4 / sliced_threads=0 / nr=0 / decimate=1 / interlaced=0 / bluray_compat=0 / constrained_intra=0 / bframes=3 / b_pyramid=2 / b_adapt=1 / b_bias=0 / direct=1 / weightb=1 / open_gop=0 / weightp=2 / keyint=240 / keyint_min=24 / scenecut=40 / intra_refresh=0 / rc_lookahead=40 / rc=abr / mbtree=1 / bitrate=3500 / ratetol=1.0 / qcomp=0.60 / qpmin=0 / qpmax=69 / qpstep=4 / vbv_maxrate=62500 / vbv_bufsize=78125 / nal_hrd=none / filler=0 / ip_ratio=1.40 / aq=1:1.00
    Default                     : Yes
    Forced                      : No
    Color range                 : Limited
    Color primaries             : BT.709
    Transfer characteristics    : BT.709
    Matrix coefficients         : BT.709
    Statistics Tags Issue       : mkvmerge v10.0.0 ('To Drown In You') 64bit 2017-07-04 20:25:25 / mkvmerge v10.0.0 ('To Drown In You') 64bit 2017-07-04 20:25:25 / UTC 2017-07-03T08:14:17Z
    FromStats_BitRate           : 3361421
    FromStats_Duration          : 01:26:20.175000000
    FromStats_FrameCount        : 124200
    FromStats_StreamSize        : 2176593813

    Audio #1
    ID                          : 2
    Format                      : AC-3
    Format/Info                 : Audio Coding 3
    Format settings, Endianness : Big
    Codec ID                    : A_AC3
    Duration                    : 1 h 26 min
    Bit rate mode               : Constant
    Bit rate                    : 384 kb/s
    Channel(s)                  : 6 channels
    Channel positions           : Front: L C R, Side: L R, LFE
    Sampling rate               : 48.0 kHz
    Frame rate                  : 31.250 FPS (1536 spf)
    Bit depth                   : 16 bits
    Compression mode            : Lossy
    Delay relative to video     : -5 ms
    Stream size                 : 238 MiB (9%)
    Title                       : Surround
    Language                    : Spanish
    Service kind                : Complete Main
    Default                     : No
    Forced                      : No
    Statistics Tags Issue       : mkvmerge v10.0.0 ('To Drown In You') 64bit 2017-07-04 20:25:25 / mkvmerge v10.0.0 ('To Drown In You') 64bit 2017-07-04 20:25:25 / UTC 2017-07-03T08:14:17Z
    FromStats_BitRate           : 384000
    FromStats_Duration          : 01:26:20.192000000
    FromStats_FrameCount        : 161881
    FromStats_StreamSize        : 248649216

    Audio #2
    ID                          : 3
    Format                      : AC-3
    Format/Info                 : Audio Coding 3
    Format settings, Endianness : Big
    Codec ID                    : A_AC3
    Duration                    : 1 h 26 min
    Bit rate mode               : Constant
    Bit rate                    : 256 kb/s
    Channel(s)                  : 2 channels
    Channel positions           : Front: L R
    Sampling rate               : 48.0 kHz
    Frame rate                  : 31.250 FPS (1536 spf)
    Bit depth                   : 16 bits
    Compression mode            : Lossy
    Delay relative to video     : -5 ms
    Stream size                 : 158 MiB (6%)
    Language                    : Spanish
    Service kind                : Complete Main
    Default                     : Yes
    Forced                      : No
    Statistics Tags Issue       : mkvmerge v10.0.0 ('To Drown In You') 64bit 2017-07-04 20:25:25 / mkvmerge v10.0.0 ('To Drown In You') 64bit 2017-07-04 20:25:25 / UTC 2017-07-03T08:14:17Z
    FromStats_BitRate           : 256000
    FromStats_Duration          : 01:26:20.192000000
    FromStats_FrameCount        : 161881
    FromStats_StreamSize        : 165766144

    Audio #3
    ID                          : 4
    Format                      : AC-3
    Format/Info                 : Audio Coding 3
    Format settings, Endianness : Big
    Codec ID                    : A_AC3
    Duration                    : 1 h 26 min
    Bit rate mode               : Constant
    Bit rate                    : 384 kb/s
    Channel(s)                  : 6 channels
    Channel positions           : Front: L C R, Side: L R, LFE
    Sampling rate               : 48.0 kHz
    Frame rate                  : 31.250 FPS (1536 spf)
    Bit depth                   : 16 bits
    Compression mode            : Lossy
    Delay relative to video     : -5 ms
    Stream size                 : 238 MiB (9%)
    Title                       : Surround
    Language                    : English
    Service kind                : Complete Main
    Default                     : No
    Forced                      : No
    Statistics Tags Issue       : mkvmerge v10.0.0 ('To Drown In You') 64bit 2017-07-04 20:25:25 / mkvmerge v10.0.0 ('To Drown In You') 64bit 2017-07-04 20:25:25 / UTC 2017-07-03T08:14:17Z
    FromStats_BitRate           : 384000
    FromStats_Duration          : 01:26:20.192000000
    FromStats_FrameCount        : 161881
    FromStats_StreamSize        : 248649216

    Text #1
    ID                          : 5
    Format                      : UTF-8
    Codec ID                    : S_TEXT/UTF8
    Codec ID/Info               : UTF-8 Plain Text
    Language                    : Spanish
    Default                     : Yes
    Forced                      : No
    Statistics Tags Issue       : mkvmerge v10.0.0 ('To Drown In You') 64bit 2017-07-04 20:25:25 / mkvmerge v10.0.0 ('To Drown In You') 64bit 2017-07-04 20:25:25 / UTC 2017-07-03T08:14:17Z
    FromStats_BitRate           : 45
    FromStats_Duration          : 01:21:06.946000000
    FromStats_FrameCount        : 839
    FromStats_StreamSize        : 27954

    Text #2
    ID                          : 6
    Format                      : UTF-8
    Codec ID                    : S_TEXT/UTF8
    Codec ID/Info               : UTF-8 Plain Text
    Language                    : English
    Default                     : No
    Forced                      : No
    Statistics Tags Issue       : mkvmerge v10.0.0 ('To Drown In You') 64bit 2017-07-04 20:25:25 / mkvmerge v10.0.0 ('To Drown In You') 64bit 2017-07-04 20:25:25 / UTC 2017-07-03T08:14:17Z
    FromStats_BitRate           : 59
    FromStats_Duration          : 01:26:29.216000000
    FromStats_FrameCount        : 987
    FromStats_StreamSize        : 38620

    Menu
    00:00:00.000                : :Chapter 1
    00:06:47.866                : :Chapter 2
    00:12:10.188                : :Chapter 3
    00:15:23.714                : :Chapter 4
    00:18:49.170                : :Chapter 5
    00:24:30.344                : :Chapter 6
    00:30:47.387                : :Chapter 7
    00:36:17.550                : :Chapter 8
    00:38:52.789                : :Chapter 9
    00:48:11.722                : :Chapter 10
    00:53:18.612                : :Chapter 11
    00:58:02.354                : :Chapter 12
    01:03:22.757                : :Chapter 13
    01:08:04.789                : :Chapter 14
    01:17:14.088                : :Chapter 15
    01:22:00.165                : :Chapter 16

  • Peso: 2.65GB

Sinopsis

Madison vive con su hija en un tranquilo vecindario, pero la vida de ambas está a punto de cambiar. Hay un factor ocn el que no habían contado a la hora de planificar su día a día: la casa en la que ambas viven está habitada también por una extraña presencia que no les deja en paz. Madisón está desesperada con esta situación y le pide ayuda a su novio Nikolai, que es científico. Nikolia no duda en ayudarla, y se embarca en una peligrosa cacería para atrapar al violento espíritu que habita el lugar, una misión que ningún experto paranormal ha querido liderar por lo peligrosa que es.

Película dirigida por Alistair Legrand y protagonizada por Ali Larter, conocida por películas como Resident Evil: Ultratumba (2010) y Obsesionada (2009), entre otras.

Ficha técnica

Imágenes, Capturas de la película

Video trailer de la película

Enlaces de descarga

Descargar The Diabolical (2016) 1080p Latino
Descargar

dpeliculas

Aportes de DPeliculasHDmega la pass es:dpeliculashdmega.org Aportes de CinemaniaHD la pass es:cinemaniahdd.com
Guardado en : Ciencia ficción , Suspense , Terror

PelícuDelas relacionadas

  • La autopsia de Jane Doe (2016) 1080p Latino

    2016
    La autopsia de Jane Doe (2016) 1080p Latino

    4.0 1h 39m 2016

    Tommy y Austin Tilden regentan una morgue y un crematorio en Virginia. Un día, el sheriff local les...

    Director: Sheila McNaught

    Género: Misterio

    Actores: Parker Sawyers

  • The Ring 2 (2005) WEB-DL 1080p Latino

    2005
    The Ring 2 (2005) WEB-DL 1080p Latino

    0.0 1h 51m 2005

    Descargar gratis The Ring 2 (2005) WEB-DL 1080p Latino. Para escapar de una vida que era una auténtica...

    Director: Trudy Ramirez

    Género: Drama

    Actores: Sissy Spacek

  • The Ring (2002) Full Latino

    2002
    The Ring (2002) Full Latino

    0.0 1h 45m 2002

    Descargar gratis The Ring (2002) Full Latino. Rachel Keller es una periodista de investigación que no...

    Director: Gore Verbinski

    Género: Misterio

    Actores: Shannon Cochran

  • The Grudge 3 (2009) Full Latino

    2009
    The Grudge 3 (2009) Full Latino

    0.0 1h 30m 2009

    Descargar gratis The Grudge 3 (2009) Full Latino. Tercera entrega americana de la saga iniciada por Takashi...

    Director: Toby Wilkins

    Género: FULL 1080p Pesadas

    Actores: Shimba Tsuchiya

Comentarios 0