The Book of Love (2017) WEBDL 1080p Latino

879 vistas
1 estrella2 estrellas3 estrellas4 estrellas5 estrellas (Ninguna valoración todavía)
Cargando…

Información de The Book of Love (2017) WEBDL 1080p Latino

Datos de la película

  • Calidad: WEBDL
  • Audio: Se especifica abajo de la Sinopsis
  • Subtitulos: Español Latino SRT - Ingles SRT
  • Resolución: 1912x812p
  • Formato: MKV
  • Codec: H.264
  • Encoder: Dpelis
  • Mediainfo: Ver Ver
  • The Book of Love (2016) WEBDL 1080p Latino.mkv
    Format                      : Matroska
    Format version              : Version 4 / Version 2
    File size                   : 3.83 GiB
    Duration                    : 1 h 46 min
    Overall bit rate            : 5 142 kb/s
    Movie name                  : DPeliculasHDMega.ORG
    Encoded date                : UTC 2017-09-01 00:46:02
    Writing application         : mkvmerge v10.0.0 ('To Drown In You') 64bit
    Writing library             : libebml v1.3.4 + libmatroska v1.4.5
    Cover                       : Yes
    Attachments                 : cover_land.jpg / small_cover.jpg / small_cover_land.jpg / cover.jpg

    Video
    ID                          : 1
    Format                      : AVC
    Format/Info                 : Advanced Video Codec
    Format profile              : [email protected]
    Format settings, CABAC      : Yes
    Format settings, ReFrames   : 5 frames
    Codec ID                    : V_MPEG4/ISO/AVC
    Duration                    : 1 h 46 min
    Bit rate                    : 4 564 kb/s
    Width                       : 1 912 pixels
    Height                      : 812 pixels
    Display aspect ratio        : 2.35:1
    Frame rate mode             : Constant
    Frame rate                  : 23.976 (24000/1001) FPS
    Color space                 : YUV
    Chroma subsampling          : 4:2:0
    Bit depth                   : 8 bits
    Scan type                   : Progressive
    Bits/(Pixel*Frame)          : 0.123
    Stream size                 : 3.40 GiB (89%)
    Language                    : English
    Default                     : Yes
    Forced                      : No
    Color range                 : Limited
    Color primaries             : BT.709
    Transfer characteristics    : BT.709
    Matrix coefficients         : BT.709

    Audio #1
    ID                          : 2
    Format                      : AC-3
    Format/Info                 : Audio Coding 3
    Format settings, Endianness : Big
    Codec ID                    : A_AC3
    Duration                    : 1 h 46 min
    Bit rate mode               : Constant
    Bit rate                    : 192 kb/s
    Channel(s)                  : 2 channels
    Channel positions           : Front: L R
    Sampling rate               : 48.0 kHz
    Frame rate                  : 31.250 FPS (1536 spf)
    Bit depth                   : 16 bits
    Compression mode            : Lossy
    Delay relative to video     : 12 s 700 ms
    Stream size                 : 146 MiB (4%)
    Language                    : Spanish
    Service kind                : Complete Main
    Default                     : Yes
    Forced                      : No

    Audio #2
    ID                          : 3
    Format                      : AC-3
    Format/Info                 : Audio Coding 3
    Format settings, Endianness : Big
    Codec ID                    : A_AC3
    Duration                    : 1 h 46 min
    Bit rate mode               : Constant
    Bit rate                    : 384 kb/s
    Channel(s)                  : 6 channels
    Channel positions           : Front: L C R, Side: L R, LFE
    Sampling rate               : 48.0 kHz
    Frame rate                  : 31.250 FPS (1536 spf)
    Bit depth                   : 16 bits
    Compression mode            : Lossy
    Stream size                 : 293 MiB (7%)
    Language                    : English
    Service kind                : Complete Main
    Default                     : No
    Forced                      : No

    Text #1
    ID                          : 4
    Format                      : UTF-8
    Codec ID                    : S_TEXT/UTF8
    Codec ID/Info               : UTF-8 Plain Text
    Duration                    : 1 h 39 min
    Bit rate                    : 45 b/s
    Count of elements           : 1229
    Stream size                 : 33.4 KiB (0%)
    Language                    : Spanish
    Default                     : No
    Forced                      : No

    Text #2
    ID                          : 5
    Format                      : UTF-8
    Codec ID                    : S_TEXT/UTF8
    Codec ID/Info               : UTF-8 Plain Text
    Duration                    : 1 h 39 min
    Bit rate                    : 50 b/s
    Count of elements           : 1384
    Stream size                 : 36.7 KiB (0%)
    Language                    : English
    Default                     : No
    Forced                      : No

    Menu
    00:00:00.000                : en:1
    00:09:26.000                : en:2
    00:21:23.000                : en:3
    00:31:53.000                : en:4
    00:38:36.000                : en:5
    00:49:05.000                : en:6
    01:01:20.000                : en:7
    01:10:46.000                : en:8
    01:21:24.000                : en:9
    01:35:56.000                : en:10
    01:41:40.000                : en:11

  • Peso: 3.83 gb

Sinopsis

Después de morir su esposa en un accidente de coche, Henry, un arquitecto introvertido, decide ayudar a Millie, una adolescente sin hogar, a construir una balsa para navegar por el Atlántico.

Español Latino AC3 2.0 – Ingles AC3 5.1

Ficha técnica

  • Titulo original: The Book of Love
  • Fecha de lanzamiento: 13-01-2017 (United States of America)
  • Director: Bill Purple
  • Género: Drama
  • Puntuación: 0.0 0 votos
  • Duración:
    1h 46m

Imágenes, Capturas de la película

Video trailer de la película

Enlaces de descarga

Descargar The Book of Love (2017) WEBDL 1080p Latino
Descargar

dpeliculas

Aportes de DPeliculasHDmega la pass es:dpeliculashdmega.org Aportes de CinemaniaHD la pass es:cinemaniahdd.com
Guardado en : Drama

PelícuDelas relacionadas

Comentarios 4
  • piero - 01 septiembre, 2017

    aaaaaaaaaaaa y si es que van a subir la pelicula de anabelle 1

    • dpelis

      Administrador
      - 03 septiembre, 2017

      mas adelante porq se aproxima la nueva

  • piero - 01 septiembre, 2017

    hola buenas queria preguntar si es que cave alguna posibilidad de que suban las pelis de evangelion y si tienen alguna informacion de la cuarta pelicula ….saludos son los mejores

    • dpelis

      Administrador
      - 03 septiembre, 2017

      por el momento no esta en lista