The Black Room (2016) Webdl 1080p Latino

1.105 vistas
1 estrella2 estrellas3 estrellas4 estrellas5 estrellas (Ninguna valoración todavía)
Cargando…

Información de The Black Room (2016) Webdl 1080p Latino

Datos de la película

  • Calidad: WEBDL
  • Audio: Español Latino AC3 5.1 Netflix - Ingles AC3 5.1 Netflix
  • Subtitulos: Español Latino SRT - Ingles SRT
  • Resolución: 1920x816p
  • Formato: MKV
  • Codec: H.264
  • Encoder: Dpelis
  • Mediainfo: Ver Ver
  • The.black.room.2016.1080p.WEBDL.Latino.mkv
    Format                      : Matroska
    Format version              : Version 4 / Version 2
    File size                   : 2.67 GiB
    Duration                    : 1 h 35 min
    Overall bit rate            : 4 021 kb/s
    Movie name                  : DPeliculasHDMega.ORG
    Encoded date                : UTC 2017-08-08 04:07:50 / UTC 2017-08-08T03:16:04Z
    Writing application         : mkvmerge v10.0.0 ('To Drown In You') 64bit
    Writing library             : libebml v1.3.4 + libmatroska v1.4.5 / Lavf57.7.2

    Video
    ID                          : 1
    Format                      : AVC
    Format/Info                 : Advanced Video Codec
    Format profile              : [email protected]
    Format settings, CABAC      : Yes
    Format settings, ReFrames   : 4 frames
    Codec ID                    : V_MPEG4/ISO/AVC
    Duration                    : 1 h 35 min
    Bit rate                    : 3 500 kb/s
    Width                       : 1 920 pixels
    Height                      : 816 pixels
    Display aspect ratio        : 2.35:1
    Frame rate mode             : Constant
    Frame rate                  : 23.976 (24000/1001) FPS
    Color space                 : YUV
    Chroma subsampling          : 4:2:0
    Bit depth                   : 8 bits
    Scan type                   : Progressive
    Bits/(Pixel*Frame)          : 0.093
    Stream size                 : 2.23 GiB (84%)
    Writing library             : x264 core 148 r2708 86b7198
    Encoding settings           : cabac=1 / ref=3 / deblock=1:0:0 / analyse=0x3:0x113 / me=hex / subme=7 / psy=1 / psy_rd=1.00:0.00 / mixed_ref=1 / me_range=16 / chroma_me=1 / trellis=1 / 8x8dct=1 / cqm=0 / deadzone=21,11 / fast_pskip=1 / chroma_qp_offset=-2 / threads=25 / lookahead_threads=4 / sliced_threads=0 / nr=0 / decimate=1 / interlaced=0 / bluray_compat=0 / constrained_intra=0 / bframes=3 / b_pyramid=2 / b_adapt=1 / b_bias=0 / direct=1 / weightb=1 / open_gop=0 / weightp=2 / keyint=240 / keyint_min=24 / scenecut=40 / intra_refresh=0 / rc_lookahead=40 / rc=abr / mbtree=1 / bitrate=3500 / ratetol=1.0 / qcomp=0.60 / qpmin=0 / qpmax=69 / qpstep=4 / vbv_maxrate=62500 / vbv_bufsize=78125 / nal_hrd=none / filler=0 / ip_ratio=1.40 / aq=1:1.00
    Default                     : Yes
    Forced                      : No
    Color range                 : Limited
    Color primaries             : BT.709
    Transfer characteristics    : BT.709
    Matrix coefficients         : BT.709
    Statistics Tags Issue       : mkvmerge v10.0.0 ('To Drown In You') 64bit 2017-08-08 04:07:50 / mkvmerge v10.0.0 ('To Drown In You') 64bit 2017-08-08 04:07:50 / UTC 2017-08-08T03:16:04Z
    FromStats_BitRate           : 3442793
    FromStats_Duration          : 01:35:02.072000000
    FromStats_FrameCount        : 136713
    FromStats_StreamSize        : 2453881966

    Audio #1
    ID                          : 2
    Format                      : E-AC-3
    Format/Info                 : Enhanced Audio Coding 3
    Format settings, Endianness : Big
    Codec ID                    : A_EAC3
    Duration                    : 1 h 35 min
    Bit rate mode               : Constant
    Bit rate                    : 192 kb/s
    Channel(s)                  : 6 channels
    Channel positions           : Front: L C R, Side: L R, LFE
    Sampling rate               : 48.0 kHz
    Frame rate                  : 187.500 FPS (256 spf)
    Compression mode            : Lossy
    Stream size                 : 131 MiB (5%)
    Service kind                : Complete Main
    Default                     : No
    Forced                      : No
    Statistics Tags Issue       : mkvmerge v10.0.0 ('To Drown In You') 64bit 2017-08-08 04:07:50 / mkvmerge v10.0.0 ('To Drown In You') 64bit 2017-08-08 04:07:50 / UTC 2017-08-08T03:16:04Z
    FromStats_BitRate           : 192000
    FromStats_Duration          : 01:35:02.432000000
    FromStats_FrameCount        : 178201
    FromStats_StreamSize        : 136858368

    Audio #2
    ID                          : 3
    Format                      : AC-3
    Format/Info                 : Audio Coding 3
    Format settings, Endianness : Big
    Codec ID                    : A_AC3
    Duration                    : 1 h 35 min
    Bit rate mode               : Constant
    Bit rate                    : 384 kb/s
    Channel(s)                  : 6 channels
    Channel positions           : Front: L C R, Side: L R, LFE
    Sampling rate               : 48.0 kHz
    Frame rate                  : 31.250 FPS (1536 spf)
    Bit depth                   : 16 bits
    Compression mode            : Lossy
    Stream size                 : 261 MiB (10%)
    Title                       : Surround
    Language                    : English
    Service kind                : Complete Main
    Default                     : Yes
    Forced                      : No
    Statistics Tags Issue       : mkvmerge v10.0.0 ('To Drown In You') 64bit 2017-08-08 04:07:50 / mkvmerge v10.0.0 ('To Drown In You') 64bit 2017-08-08 04:07:50 / UTC 2017-08-08T03:16:04Z
    FromStats_BitRate           : 384000
    FromStats_Duration          : 01:35:02.432000000
    FromStats_FrameCount        : 178201
    FromStats_StreamSize        : 273716736

    Text #1
    ID                          : 4
    Format                      : UTF-8
    Codec ID                    : S_TEXT/UTF8
    Codec ID/Info               : UTF-8 Plain Text
    Language                    : Spanish
    Default                     : Yes
    Forced                      : No
    Statistics Tags Issue       : mkvmerge v10.0.0 ('To Drown In You') 64bit 2017-08-08 04:07:50 / mkvmerge v10.0.0 ('To Drown In You') 64bit 2017-08-08 04:07:50 / UTC 2017-08-08T03:16:04Z
    FromStats_BitRate           : 51
    FromStats_Duration          : 01:32:40.853000000
    FromStats_FrameCount        : 1150
    FromStats_StreamSize        : 35749

    Text #2
    ID                          : 5
    Format                      : ASS
    Codec ID                    : S_TEXT/ASS
    Codec ID/Info               : Advanced Sub Station Alpha
    Compression mode            : Lossless
    Language                    : English
    Default                     : No
    Forced                      : No
    Statistics Tags Issue       : mkvmerge v10.0.0 ('To Drown In You') 64bit 2017-08-08 04:07:50 / mkvmerge v10.0.0 ('To Drown In You') 64bit 2017-08-08 04:07:50 / UTC 2017-08-08T03:16:04Z
    FromStats_BitRate           : 95
    FromStats_Duration          : 01:34:07.150000000
    FromStats_FrameCount        : 1359
    FromStats_StreamSize        : 67678

  • Peso: 2.67 GB

Sinopsis

Descargar The Black Room (2016) hd latino Una pelicula de Netflix, tambien conocida como La habitacion Negra Una joven pareja se muda a la casa de sus sueños que rápidamente se convierte en su peor pesadilla cuando descubren que hay un oscuro secreto que se esconde en el sótano.

Ficha técnica

  • Titulo original: The Black Room
  • Fecha de lanzamiento: 31-10-2016 (United States of America)
  • Director: Rolfe Kanefsky
  • Género: Terror
  • Puntuación: 0.0 0 votos
  • Duración:
    1h 31m

Imágenes, Capturas de la película

Video trailer de la película

Enlaces de descarga

Descargar The Black Room (2016) Webdl 1080p Latino
Descargar

dpeliculas

Aportes de DPeliculasHDmega la pass es:dpeliculashdmega.org Aportes de CinemaniaHD la pass es:cinemaniahdd.com
Guardado en : Terror

PelícuDelas relacionadas

Comentarios 2
  • KL0WNsic - 08 Agosto, 2017

    Muchas gracias por el aporte, solo que al momento de querarla descargar. Los links son de la pelicula the bride

    • dpelis

      Administrador
      - 08 Agosto, 2017

      gracias avisar, era solo los de google drive. ya fue reparado