El Gran Enfermedad del Amor ( 2017) 1080p Latino

588 vistas
1 estrella2 estrellas3 estrellas4 estrellas5 estrellas (Ninguna valoración todavía)
Cargando…

Información de El Gran Enfermedad del Amor ( 2017) 1080p Latino

Datos de la película

  • Calidad: 1080p
  • Audio: Español Latino AC3 5.1 BLURAY - Ingles AC3 5.1 BLURAY
  • Subtitulos: Español Latino SRT - Ingles SRT
  • Resolución: 1920x1040
  • Formato: MKV
  • Codec: H.264
  • Encoder: Dpelis
  • Mediainfo: Ver Ver
  • \The Big Sick (2017) 1080p Latino.mkv
    Format                      : Matroska
    Format version              : Version 4 / Version 2
    File size                   : 3.61 GiB
    Duration                    : 2 h 0 min
    Overall bit rate            : 4 296 kb/s
    Movie name                  : DPeliculasHDMega.ORG
    Encoded date                : UTC 2017-09-08 03:36:36 / UTC 2017-09-08T02:33:17Z
    Writing application         : mkvmerge v10.0.0 ('To Drown In You') 64bit
    Writing library             : libebml v1.3.4 + libmatroska v1.4.5 / Lavf57.7.2

    Video
    ID                          : 1
    Format                      : AVC
    Format/Info                 : Advanced Video Codec
    Format profile              : [email protected]
    Format settings, CABAC      : Yes
    Format settings, ReFrames   : 4 frames
    Codec ID                    : V_MPEG4/ISO/AVC
    Duration                    : 2 h 0 min
    Bit rate                    : 3 500 kb/s
    Width                       : 1 920 pixels
    Height                      : 1 040 pixels
    Display aspect ratio        : 1.85:1
    Frame rate mode             : Constant
    Frame rate                  : 23.976 (24000/1001) FPS
    Color space                 : YUV
    Chroma subsampling          : 4:2:0
    Bit depth                   : 8 bits
    Scan type                   : Progressive
    Bits/(Pixel*Frame)          : 0.073
    Stream size                 : 2.84 GiB (79%)
    Writing library             : x264 core 148 r2708 86b7198
    Encoding settings           : cabac=1 / ref=3 / deblock=1:0:0 / analyse=0x3:0x113 / me=hex / subme=7 / psy=1 / psy_rd=1.00:0.00 / mixed_ref=1 / me_range=16 / chroma_me=1 / trellis=1 / 8x8dct=1 / cqm=0 / deadzone=21,11 / fast_pskip=1 / chroma_qp_offset=-2 / threads=32 / lookahead_threads=5 / sliced_threads=0 / nr=0 / decimate=1 / interlaced=0 / bluray_compat=0 / constrained_intra=0 / bframes=3 / b_pyramid=2 / b_adapt=1 / b_bias=0 / direct=1 / weightb=1 / open_gop=0 / weightp=2 / keyint=240 / keyint_min=24 / scenecut=40 / intra_refresh=0 / rc_lookahead=40 / rc=abr / mbtree=1 / bitrate=3500 / ratetol=1.0 / qcomp=0.60 / qpmin=0 / qpmax=69 / qpstep=4 / vbv_maxrate=62500 / vbv_bufsize=78125 / nal_hrd=none / filler=0 / ip_ratio=1.40 / aq=1:1.00
    Default                     : Yes
    Forced                      : No
    Color range                 : Limited
    Color primaries             : BT.709
    Transfer characteristics    : BT.709
    Matrix coefficients         : BT.709
    Statistics Tags Issue       : mkvmerge v10.0.0 ('To Drown In You') 64bit 2017-09-08 03:36:36 / mkvmerge v10.0.0 ('To Drown In You') 64bit 2017-09-08 03:36:36 / UTC 2017-09-08T02:33:17Z
    FromStats_BitRate           : 3461133
    FromStats_Duration          : 02:00:24.259000000
    FromStats_FrameCount        : 173209
    FromStats_StreamSize        : 3125515376

    Audio #1
    ID                          : 2
    Format                      : AC-3
    Format/Info                 : Audio Coding 3
    Format settings, Endianness : Big
    Codec ID                    : A_AC3
    Duration                    : 2 h 0 min
    Bit rate mode               : Constant
    Bit rate                    : 448 kb/s
    Channel(s)                  : 6 channels
    Channel positions           : Front: L C R, Side: L R, LFE
    Sampling rate               : 48.0 kHz
    Frame rate                  : 31.250 FPS (1536 spf)
    Bit depth                   : 16 bits
    Compression mode            : Lossy
    Delay relative to video     : -5 ms
    Stream size                 : 386 MiB (10%)
    Language                    : Spanish
    Service kind                : Complete Main
    Default                     : Yes
    Forced                      : No
    Statistics Tags Issue       : mkvmerge v10.0.0 ('To Drown In You') 64bit 2017-09-08 03:36:36 / mkvmerge v10.0.0 ('To Drown In You') 64bit 2017-09-08 03:36:36 / UTC 2017-09-08T02:33:17Z
    FromStats_BitRate           : 448000
    FromStats_Duration          : 02:00:24.288000000
    FromStats_FrameCount        : 225759
    FromStats_StreamSize        : 404560128

    Audio #2
    ID                          : 3
    Format                      : AC-3
    Format/Info                 : Audio Coding 3
    Format settings, Endianness : Big
    Codec ID                    : A_AC3
    Duration                    : 2 h 0 min
    Bit rate mode               : Constant
    Bit rate                    : 384 kb/s
    Channel(s)                  : 6 channels
    Channel positions           : Front: L C R, Side: L R, LFE
    Sampling rate               : 48.0 kHz
    Frame rate                  : 31.250 FPS (1536 spf)
    Bit depth                   : 16 bits
    Compression mode            : Lossy
    Delay relative to video     : -5 ms
    Stream size                 : 331 MiB (9%)
    Title                       : Surround
    Language                    : English
    Service kind                : Complete Main
    Default                     : No
    Forced                      : No
    Statistics Tags Issue       : mkvmerge v10.0.0 ('To Drown In You') 64bit 2017-09-08 03:36:36 / mkvmerge v10.0.0 ('To Drown In You') 64bit 2017-09-08 03:36:36 / UTC 2017-09-08T02:33:17Z
    FromStats_BitRate           : 384000
    FromStats_Duration          : 02:00:24.160000000
    FromStats_FrameCount        : 225755
    FromStats_StreamSize        : 346759680

    Text #1
    ID                          : 4
    Format                      : UTF-8
    Codec ID                    : S_TEXT/UTF8
    Codec ID/Info               : UTF-8 Plain Text
    Language                    : Spanish
    Default                     : No
    Forced                      : No
    Statistics Tags Issue       : mkvmerge v10.0.0 ('To Drown In You') 64bit 2017-09-08 03:36:36 / mkvmerge v10.0.0 ('To Drown In You') 64bit 2017-09-08 03:36:36 / UTC 2017-09-08T02:33:17Z
    FromStats_BitRate           : 76
    FromStats_Duration          : 01:57:05.227000000
    FromStats_FrameCount        : 1939
    FromStats_StreamSize        : 67423

    Text #2
    ID                          : 5
    Format                      : UTF-8
    Codec ID                    : S_TEXT/UTF8
    Codec ID/Info               : UTF-8 Plain Text
    Language                    : English
    Default                     : No
    Forced                      : No
    Statistics Tags Issue       : mkvmerge v10.0.0 ('To Drown In You') 64bit 2017-09-08 03:36:36 / mkvmerge v10.0.0 ('To Drown In You') 64bit 2017-09-08 03:36:36 / UTC 2017-09-08T02:33:17Z
    FromStats_BitRate           : 102
    FromStats_Duration          : 01:56:44.164000000
    FromStats_FrameCount        : 2706
    FromStats_StreamSize        : 89700

    Menu
    00:00:00.000                : :00:00:00.000
    00:07:16.311                : :00:07:16.311
    00:13:40.695                : :00:13:40.695
    00:21:59.819                : :00:21:59.818
    00:29:05.577                : :00:29:05.577
    00:37:19.404                : :00:37:19.404
    00:45:03.242                : :00:45:03.159
    00:53:08.769                : :00:53:08.769
    01:00:37.425                : :01:00:37.425
    01:08:40.575                : :01:08:40.575
    01:14:46.065                : :01:14:45.940
    01:22:43.667                : :01:22:43.667
    01:31:03.041                : :01:31:03.041
    01:38:32.323                : :01:38:32.323
    01:46:52.156                : :01:46:52.156
    01:57:49.437                : :01:57:49.396

  • Peso: 3.61 GB

Sinopsis

The Big Sick cuenta la historia de una pareja que debe hacer frente a sus diferencias culturales a medida que la relación avanza y crece a partes iguales.

Dirigida por Michael Showalter (Hello, my name is Doris, Wet Hot American Summer), esta comedia romántica cuenta con un reparto formado por Holly Hunter (Batman v Superman: El amanecer de la justicia), Zoe Kazan (Ruby Sparks), Ray Romano (Ice Age 2: El deshielo), Kumail Nanjiani (Como la vida misma), Bo Burnham (Bo Burnham: Make Happy) y Adeel Akhtar (El dictador), entre otros.

Ficha técnica

  • Titulo original: The Big Sick
  • Fecha de lanzamiento: 23-06-2017 (United States of America)
  • Director: Michael Showalter
  • Género: Comedia, Drama, Romance
  • Puntuación: 0.0 0 votos
  • Duración:
    1h 59m

Imágenes, Capturas de la película

Video trailer de la película

Enlaces de descarga

Descargar El Gran Enfermedad del Amor ( 2017) 1080p Latino
Descargar

dpeliculas

Aportes de DPeliculasHDmega la pass es:dpeliculashdmega.org Aportes de CinemaniaHD la pass es:cinemaniahdd.com
Guardado en : Comedia , Drama , Romance

PelícuDelas relacionadas

Comentarios 2
  • seba - 08 septiembre, 2017

    saldra en gris ???

    • dpelis

      Administrador
      - 08 septiembre, 2017

      si estimado. manana