The Big Sick (2017) Full Latino

799 vistas
1 estrella2 estrellas3 estrellas4 estrellas5 estrellas (1 votos, promedio: 3,00 de 5)
Cargando…

Información de The Big Sick (2017) Full Latino

Datos de la película

  • Calidad: Full 1080p
  • Audio: Español Latino AC3 5.1 BLURAY - Ingles DTS 5.1 BLURAY
  • Subtitulos: Español Latino PGS - Ingles PGS
  • Resolución: 1920x1080p
  • Formato: MKV
  • Codec: H.264
  • Encoder: Dpelis1
  • Mediainfo: Ver Ver
  • Video
    ID                                       : 1
    Format                                   : AVC
    Format/Info                              : Advanced Video Codec
    Format profile                           : [email protected]
    Format settings, CABAC                   : Yes
    Format settings, RefFrames               : 4 frames
    Codec ID                                 : V_MPEG4/ISO/AVC
    Duration                                 : 2 h 0 min
    Bit rate                                 : 5 396 kb/s
    Width                                    : 1 920 pixels
    Height                                   : 1 080 pixels
    Display aspect ratio                     : 16:9
    Frame rate mode                          : Constant
    Frame rate                               : 23.976 (24000/1001) FPS
    Color space                              : YUV
    Chroma subsampling                       : 4:2:0
    Bit depth                                : 8 bits
    Scan type                                : Progressive
    Bits/(Pixel*Frame)                       : 0.109
    Stream size                              : 4.54 GiB (72%)
    Writing library                          : x264 core 148 r2708 86b7198
    Encoding settings                        : cabac=1 / ref=4 / deblock=1:0:0 / analyse=0x3:0x133 / me=esa / subme=10 / psy=1 / psy_rd=1.00:0.00 / mixed_ref=1 / me_range=24 / chroma_me=1 / trellis=2 / 8x8dct=1 / cqm=0 / deadzone=21,11 / fast_pskip=1 / chroma_qp_offset=-2 / threads=34 / lookahead_threads=5 / sliced_threads=0 / nr=0 / decimate=1 / interlaced=0 / bluray_compat=0 / constrained_intra=0 / bframes=8 / b_pyramid=2 / b_adapt=2 / b_bias=0 / direct=3 / weightb=1 / open_gop=0 / weightp=2 / keyint=240 / keyint_min=24 / scenecut=40 / intra_refresh=0 / rc_lookahead=60 / rc=crf / mbtree=1 / crf=20.0 / qcomp=0.60 / qpmin=0 / qpmax=69 / qpstep=4 / vbv_maxrate=62500 / vbv_bufsize=78125 / crf_max=0.0 / nal_hrd=none / filler=0 / ip_ratio=1.40 / aq=1:1.00
    Default                                  : Yes
    Forced                                   : No
    Color range                              : Limited
    Color primaries                          : BT.709
    Transfer characteristics                 : BT.709
    Matrix coefficients                      : BT.709
    Statistics Tags Issue                    : mkvmerge v10.0.0 ('To Drown In You') 64bit 2017-09-09 00:39:03 / mkvmerge v10.0.0 ('To Drown In You') 64bit 2017-09-09 00:39:03 / UTC 2017-09-08T16:19:29Z
    FromStats_BitRate                        : 5503089
    FromStats_Duration                       : 02:00:24.176000000
    FromStats_FrameCount                     : 173207
    FromStats_StreamSize                     : 4969411275

    Audio #1
    ID                                       : 2
    Format                                   : AC-3
    Format/Info                              : Audio Coding 3
    Format settings, Endianness              : Big
    Codec ID                                 : A_AC3
    Duration                                 : 2 h 0 min
    Bit rate mode                            : Constant
    Bit rate                                 : 448 kb/s
    Channel(s)                               : 6 channels
    Channel positions                        : Front: L C R, Side: L R, LFE
    Sampling rate                            : 48.0 kHz
    Frame rate                               : 31.250 FPS (1536 SPF)
    Bit depth                                : 16 bits
    Compression mode                         : Lossy
    Stream size                              : 386 MiB (6%)
    Title                                    : Surround
    Language                                 : Spanish
    Service kind                             : Complete Main
    Default                                  : Yes
    Forced                                   : No
    Statistics Tags Issue                    : mkvmerge v10.0.0 ('To Drown In You') 64bit 2017-09-09 00:39:03 / mkvmerge v10.0.0 ('To Drown In You') 64bit 2017-09-09 00:39:03 / UTC 2017-09-08T16:19:29Z
    FromStats_BitRate                        : 448000
    FromStats_Duration                       : 02:00:24.192000000
    FromStats_FrameCount                     : 225756
    FromStats_StreamSize                     : 404554752

    Audio #2
    ID                                       : 3
    Format                                   : DTS
    Format/Info                              : Digital Theater Systems
    Mode                                     : 16
    Format settings, Endianness              : Big
    Codec ID                                 : A_DTS
    Duration                                 : 2 h 0 min
    Bit rate mode                            : Constant
    Bit rate                                 : 1 509 kb/s
    Channel(s)                               : 6 channels
    Channel positions                        : Front: L C R, Side: L R, LFE
    Sampling rate                            : 48.0 kHz
    Frame rate                               : 93.750 FPS (512 SPF)
    Bit depth                                : 24 bits
    Compression mode                         : Lossy
    Stream size                              : 1.27 GiB (20%)
    Language                                 : English
    Default                                  : No
    Forced                                   : No
    Statistics Tags Issue                    : mkvmerge v10.0.0 ('To Drown In You') 64bit 2017-09-09 00:39:03 / mkvmerge v10.0.0 ('To Drown In You') 64bit 2017-09-09 00:39:03 / UTC 2017-09-08T16:19:29Z
    FromStats_BitRate                        : 1508999
    FromStats_Duration                       : 02:00:24.182000000
    FromStats_FrameCount                     : 677267
    FromStats_StreamSize                     : 1362661204

    Text #1
    ID                                       : 4
    Format                                   : PGS
    Muxing mode                              : zlib
    Codec ID                                 : S_HDMV/PGS
    Codec ID/Info                            : Picture based subtitle format used on BDs/HD-DVDs
    Language                                 : Spanish
    Default                                  : No
    Forced                                   : No
    Statistics Tags Issue                    : mkvmerge v10.0.0 ('To Drown In You') 64bit 2017-09-09 00:39:03 / mkvmerge v10.0.0 ('To Drown In You') 64bit 2017-09-09 00:39:03 / UTC 2017-09-08T16:19:29Z
    FromStats_BitRate                        : 17311
    FromStats_Duration                       : 01:57:05.226000000
    FromStats_FrameCount                     : 3888
    FromStats_StreamSize                     : 15202294

    Text #2
    ID                                       : 5
    Format                                   : PGS
    Muxing mode                              : zlib
    Codec ID                                 : S_HDMV/PGS
    Codec ID/Info                            : Picture based subtitle format used on BDs/HD-DVDs
    Language                                 : English
    Default                                  : No
    Forced                                   : No
    Statistics Tags Issue                    : mkvmerge v10.0.0 ('To Drown In You') 64bit 2017-09-09 00:39:03 / mkvmerge v10.0.0 ('To Drown In You') 64bit 2017-09-09 00:39:03 / UTC 2017-09-08T16:19:29Z
    FromStats_BitRate                        : 22691
    FromStats_Duration                       : 01:56:44.164000000
    FromStats_FrameCount                     : 5412
    FromStats_StreamSize                     : 19866730

    Menu
    00:00:00.000                             : :Chapter 1
    00:07:16.311                             : :Chapter 2
    00:13:40.695                             : :Chapter 3
    00:21:59.819                             : :Chapter 4
    00:29:05.577                             : :Chapter 5
    00:37:19.404                             : :Chapter 6
    00:45:03.034                             : :Chapter 7
    00:53:08.769                             : :Chapter 8
    01:00:37.425                             : :Chapter 9
    01:08:40.575                             : :Chapter 10
    01:14:45.439                             : :Chapter 11
    01:22:43.667                             : :Chapter 12
    01:31:03.041                             : :Chapter 13
    01:38:32.323                             : :Chapter 14
    01:46:52.156                             : :Chapter 15
    01:57:49.396                             : :Chapter 16

  • Peso: 6,30 GB

Sinopsis

Descargar gratis The Big Sick (20179 Full Latino. cuenta la historia de una pareja que debe hacer frente a sus diferencias culturales a medida que la relación avanza y crece a prtes iguales.

Ficha técnica

Imágenes, Capturas de la película

Video trailer de la película

Enlaces de descarga

Descargar The Big Sick (2017) Full Latino
Descargar

dpeliculas

Aportes de DPeliculasHDmega la pass es:dpeliculashdmega.org Aportes de CinemaniaHD la pass es:cinemaniahdd.com
Guardado en : Comedia , Drama , Romance

PelícuDelas relacionadas

Comentarios 2
  • Pachora007 - 09 septiembre, 2017

    no soy donador ni nada pero por favor podrían subir Papeles en el Viento ?¿?¿
    Acaban de agregarla a Netflix

    • dpelis

      Administrador
      - 10 septiembre, 2017

      no aparece