Advertise here

The Amazing Spider-Man (2012) Full 1080p Latino

709 vistas
1 estrella2 estrellas3 estrellas4 estrellas5 estrellas (3 votos, promedio: 4,00 de 5)
Cargando…

Información de The Amazing Spider-Man (2012) Full 1080p Latino

Datos de la película

  • Calidad: Full 1080p
  • Audio: Español Latino AC3 5.1 BLURAY - Ingles DTS 5.1 BLURAY
  • Subtitulos: Español Latino PGS - Ingles PGS
  • Resolución: 1920X1080p
  • Formato: MKV
  • Codec: H.264
  • Encoder: Dpelis
  • Mediainfo: Clic para Mostrar Datos Ver
  • Format                                   : Matroska
    Format version                           : Version 4 / Version 2
    File size                                : 4.40 GiB
    Duration                                 : 2 h 16 min
    Overall bit rate                         : 4 621 kb/s
    Movie name                               : dpeliculashdmega.org
    Encoded date                             : UTC 2017-11-04 04:49:58 / UTC 2017-11-02T06:05:47Z
    Writing application                      : mkvmerge v15.0.0 ('Duel with the Devil') 64-bit
    Writing library                          : libebml v1.3.5 + libmatroska v1.4.5 / Lavf57.7.2

    Video
    ID                                       : 1
    Format                                   : AVC
    Format/Info                              : Advanced Video Codec
    Format profile                           : [email protected]
    Format settings                          : CABAC / 4 Ref Frames
    Format settings, CABAC                   : Yes
    Format settings, RefFrames               : 4 frames
    Codec ID                                 : V_MPEG4/ISO/AVC
    Duration                                 : 2 h 16 min
    Bit rate                                 : 2 380 kb/s
    Width                                    : 1 920 pixels
    Height                                   : 1 080 pixels
    Display aspect ratio                     : 16:9
    Frame rate mode                          : Constant
    Frame rate                               : 23.976 (24000/1001) FPS
    Color space                              : YUV
    Chroma subsampling                       : 4:2:0
    Bit depth                                : 8 bits
    Scan type                                : Progressive
    Bits/(Pixel*Frame)                       : 0.048
    Stream size                              : 2.27 GiB (52%)
    Title                                    : The Amazing Spider-Man (2012) Full 1080p Latino
    Writing library                          : x264 core 148 r2708 86b7198
    Encoding settings                        : cabac=1 / ref=4 / deblock=1:0:0 / analyse=0x3:0x133 / me=esa / subme=10 / psy=1 / psy_rd=1.00:0.00 / mixed_ref=1 / me_range=24 / chroma_me=1 / trellis=2 / 8x8dct=1 / cqm=0 / deadzone=21,11 / fast_pskip=1 / chroma_qp_offset=-2 / threads=34 / lookahead_threads=5 / sliced_threads=0 / nr=0 / decimate=1 / interlaced=0 / bluray_compat=0 / constrained_intra=0 / bframes=8 / b_pyramid=2 / b_adapt=2 / b_bias=0 / direct=3 / weightb=1 / open_gop=0 / weightp=2 / keyint=240 / keyint_min=24 / scenecut=40 / intra_refresh=0 / rc_lookahead=60 / rc=crf / mbtree=1 / crf=20.0 / qcomp=0.60 / qpmin=0 / qpmax=69 / qpstep=4 / vbv_maxrate=62500 / vbv_bufsize=78125 / crf_max=0.0 / nal_hrd=none / filler=0 / ip_ratio=1.40 / aq=1:1.00
    Language                                 : English
    Default                                  : Yes
    Forced                                   : No
    Color range                              : Limited
    Color primaries                          : BT.709
    Transfer characteristics                 : BT.709
    Matrix coefficients                      : BT.709
    Statistics Tags Issue                    : mkvmerge v15.0.0 ('Duel with the Devil') 64-bit 2017-11-04 04:49:58 / mkvmerge v15.0.0 ('Duel with the Devil') 64-bit 2017-11-04 04:49:58 / UTC 2017-11-02T06:05:47Z
    FromStats_BitRate                        : 2448634
    FromStats_Duration                       : 02:16:17.169000000
    FromStats_FrameCount                     : 196056
    FromStats_StreamSize                     : 2502861775

    Audio #1
    ID                                       : 2
    Format                                   : AC-3
    Format/Info                              : Audio Coding 3
    Format settings, Endianness              : Big
    Codec ID                                 : A_AC3
    Duration                                 : 2 h 16 min
    Bit rate mode                            : Constant
    Bit rate                                 : 640 kb/s
    Channel(s)                               : 6 channels
    Channel positions                        : Front: L C R, Side: L R, LFE
    Sampling rate                            : 48.0 kHz
    Frame rate                               : 31.250 FPS (1536 SPF)
    Bit depth                                : 16 bits
    Compression mode                         : Lossy
    Stream size                              : 624 MiB (14%)
    Title                                    : Latino-AC3
    Language                                 : Spanish
    Service kind                             : Complete Main
    Default                                  : Yes
    Forced                                   : No
    Statistics Tags Issue                    : mkvmerge v15.0.0 ('Duel with the Devil') 64-bit 2017-11-04 04:49:58 / mkvmerge v15.0.0 ('Duel with the Devil') 64-bit 2017-11-04 04:49:58 / UTC 2017-11-02T06:05:47Z
    FromStats_BitRate                        : 640000
    FromStats_Duration                       : 02:16:17.184000000
    FromStats_FrameCount                     : 255537
    FromStats_StreamSize                     : 654174720

    Audio #2
    ID                                       : 3
    Format                                   : DTS
    Format/Info                              : Digital Theater Systems
    Mode                                     : 16
    Format settings, Endianness              : Big
    Codec ID                                 : A_DTS
    Duration                                 : 2 h 16 min
    Bit rate mode                            : Constant
    Bit rate                                 : 1 509 kb/s
    Channel(s)                               : 6 channels
    Channel positions                        : Front: L C R, Side: L R, LFE
    Sampling rate                            : 48.0 kHz
    Frame rate                               : 93.750 FPS (512 SPF)
    Bit depth                                : 24 bits
    Compression mode                         : Lossy
    Stream size                              : 1.44 GiB (33%)
    Title                                    : Ingles-DTS
    Language                                 : English
    Default                                  : No
    Forced                                   : No
    Statistics Tags Issue                    : mkvmerge v15.0.0 ('Duel with the Devil') 64-bit 2017-11-04 04:49:58 / mkvmerge v15.0.0 ('Duel with the Devil') 64-bit 2017-11-04 04:49:58 / UTC 2017-11-02T06:05:47Z
    FromStats_BitRate                        : 1508999
    FromStats_Duration                       : 02:16:17.174000000
    FromStats_FrameCount                     : 766610
    FromStats_StreamSize                     : 1542419320

    Text #1
    ID                                       : 4
    Format                                   : PGS
    Muxing mode                              : zlib
    Codec ID                                 : S_HDMV/PGS
    Codec ID/Info                            : Picture based subtitle format used on BDs/HD-DVDs
    Language                                 : Spanish
    Default                                  : No
    Forced                                   : No
    Statistics Tags Issue                    : mkvmerge v15.0.0 ('Duel with the Devil') 64-bit 2017-11-04 04:49:58 / mkvmerge v15.0.0 ('Duel with the Devil') 64-bit 2017-11-04 04:49:58 / UTC 2017-11-02T06:05:47Z
    FromStats_BitRate                        : 22342
    FromStats_Duration                       : 02:15:22.114000000
    FromStats_FrameCount                     : 3014
    FromStats_StreamSize                     : 22684039

    Text #2
    ID                                       : 5
    Format                                   : PGS
    Muxing mode                              : zlib
    Codec ID                                 : S_HDMV/PGS
    Codec ID/Info                            : Picture based subtitle format used on BDs/HD-DVDs
    Language                                 : English
    Default                                  : No
    Forced                                   : No
    Statistics Tags Issue                    : mkvmerge v15.0.0 ('Duel with the Devil') 64-bit 2017-11-04 04:49:58 / mkvmerge v15.0.0 ('Duel with the Devil') 64-bit 2017-11-04 04:49:58 / UTC 2017-11-02T06:05:47Z
    FromStats_BitRate                        : 25005
    FromStats_Duration                       : 02:09:07.407000000
    FromStats_FrameCount                     : 3073
    FromStats_StreamSize                     : 24216003

    Menu
    00:00:00.000                             : :00:00:00.000
    00:07:45.924                             : :00:07:45.924
    00:14:39.670                             : :00:14:39.670
    00:22:57.543                             : :00:22:57.543
    00:32:58.226                             : :00:32:58.226
    00:41:25.066                             : :00:41:25.066
    00:48:42.503                             : :00:48:42.503
    00:55:10.933                             : :00:55:10.933
    01:03:17.294                             : :01:03:17.293
    01:12:29.011                             : :01:12:29.011
    01:17:51.750                             : :01:17:51.750
    01:24:38.949                             : :01:24:38.949
    01:34:04.556                             : :01:34:04.556
    01:42:59.548                             : :01:42:59.548
    01:52:16.355                             : :01:52:16.355
    02:00:52.912                             : :02:00:52.912

  • Peso: 4.40 GiB

Sinopsis

Un estudiante de secundaria que fue abandonado por sus padres cuando era niño, dejándolo a cargo de su tío Ben (Martin Sheen) y su tía May (Sally Field). Como la mayoría de los adolescentes de su edad, Peter trata de averiguar quién es y qué quiere llegar a ser. Peter también está encontrando su camino con su primer amor de secundaria, Gwen Stacy (Emma Stone), y juntos luchan por su amor con compromiso. Cuando Peter descubre un misterioso maletín que perteneció a su padre, comienza la búsqueda para entender la desaparición de sus padres, una búsqueda que le lleva directamente a Oscorp, el laboratorio del Dr Curt Connors (Rhys Ifans), ex-compañero de trabajo de su padre. Mientras Spider-Man se encuentra en plena colisión con el alter-ego de Connors, el Lagarto, Peter hará elecciones que alterarán sus opciones para usar sus poderes y darán forma a un destino héroico.

 

Nota: Rip de un 4K

Ficha técnica

Video trailer de la película

Enlaces de descarga

Descargar The Amazing Spider-Man (2012) Full 1080p Latino
Descargar

dpeliculas

Aportes de DPeliculasHDmega la pass es:dpeliculashdmega.org Aportes de CinemaniaHD la pass es:cinemaniahdd.com

Películas relacionadas

  • Toy Story 3 (2010) Full 1080p Latino

    2010
    Toy Story 3 (2010) Full 1080p Latino

    0.0 1 h 43 min 2010

    Sabiendo que su dueño Andy, que ya no es un niño, se prepara para ir a la universidad, el vaquero Woody,...

    Director: Mark Sanford

    Género: Animación

    Actores: Whoopi Goldberg

  • Toy Story (1995) Full 1080p Latino

    1995
    Toy Story (1995) Full 1080p Latino

    0.0 1 h 21 min 1995

    Los juguetes de Andy, un niño de 6 años, temen que haya llegado su hora y que un nuevo regalo de cumpleaños...

    Director: Roman Figun

    Género: Animación

    Actores: Wallace Shawn

  • Avatar (2009) EXTENDED Full 1080p Latino

    2009
    Avatar (2009) EXTENDED Full 1080p Latino

    0.0 2 h 58 min 2009

    Jake Sully, un ex-marine confinado a una silla de ruedas, es reclutado para viajar al planeta Pandora,...

    Director: James Cameron

    Género: Acción

    Actores: Zoe Saldana

Comentarios 2
  • percy curas - 06 noviembre, 2017

    holas gracias por la peli pero no seria mejor un ripeado de un Blu ray en ves de un 4k rip ? pues en su antigua pagina estaba para bajar la peli de rip blu ray y el peso era mayor 11 gigas pero no lo pude bajar en su momento

    • dpelis

      Administrador
      - 11 noviembre, 2017

      si la subimos asi porq es mejor la calidad. saludos