Advertise here

The Amazing Spider-Man 2: El poder de Electro (2014) Full 1080p Latino

902 vistas
1 estrella2 estrellas3 estrellas4 estrellas5 estrellas (3 votos, promedio: 3,00 de 5)
Cargando…

Información de The Amazing Spider-Man 2: El poder de Electro (2014) Full 1080p Latino

Datos de la película

  • Calidad: Full 1080p
  • Audio: Español Latino AC3 5.1 BLURAY - Ingles DTS 5.1 BLURAY
  • Subtitulos: Español Latino PGS - Ingles PGS
  • Resolución: 1920X1080
  • Formato: MKV
  • Codec: H.264
  • Encoder: Dpelis
  • Mediainfo: Clic para Mostrar Datos Ver
  • Format                                   : Matroska
    Format version                           : Version 4 / Version 2
    File size                                : 7.57 GiB
    Duration                                 : 2 h 21 min
    Overall bit rate                         : 7 657 kb/s
    Movie name                               : dpeliculashdmega.org
    Encoded date                             : UTC 2017-11-04 05:43:28 / UTC 2017-09-11T05:01:11Z
    Writing application                      : mkvmerge v15.0.0 ('Duel with the Devil') 64-bit
    Writing library                          : libebml v1.3.5 + libmatroska v1.4.5 / Lavf57.7.2

    Video
    ID                                       : 1
    Format                                   : AVC
    Format/Info                              : Advanced Video Codec
    Format profile                           : [email protected]
    Format settings                          : CABAC / 4 Ref Frames
    Format settings, CABAC                   : Yes
    Format settings, RefFrames               : 4 frames
    Codec ID                                 : V_MPEG4/ISO/AVC
    Duration                                 : 2 h 21 min
    Bit rate                                 : 5 356 kb/s
    Width                                    : 1 920 pixels
    Height                                   : 1 080 pixels
    Display aspect ratio                     : 16:9
    Frame rate mode                          : Constant
    Frame rate                               : 23.976 (24000/1001) FPS
    Color space                              : YUV
    Chroma subsampling                       : 4:2:0
    Bit depth                                : 8 bits
    Scan type                                : Progressive
    Bits/(Pixel*Frame)                       : 0.108
    Stream size                              : 5.30 GiB (70%)
    Title                                    : The Amazing Spider-Man 2: El poder de Electro (2014) Full 1080p Latino
    Writing library                          : x264 core 148 r2708 86b7198
    Encoding settings                        : cabac=1 / ref=4 / deblock=1:0:0 / analyse=0x3:0x133 / me=esa / subme=10 / psy=1 / psy_rd=1.00:0.00 / mixed_ref=1 / me_range=24 / chroma_me=1 / trellis=2 / 8x8dct=1 / cqm=0 / deadzone=21,11 / fast_pskip=1 / chroma_qp_offset=-2 / threads=34 / lookahead_threads=5 / sliced_threads=0 / nr=0 / decimate=1 / interlaced=0 / bluray_compat=0 / constrained_intra=0 / bframes=8 / b_pyramid=2 / b_adapt=2 / b_bias=0 / direct=3 / weightb=1 / open_gop=0 / weightp=2 / keyint=240 / keyint_min=24 / scenecut=40 / intra_refresh=0 / rc_lookahead=60 / rc=crf / mbtree=1 / crf=20.0 / qcomp=0.60 / qpmin=0 / qpmax=69 / qpstep=4 / vbv_maxrate=62500 / vbv_bufsize=78125 / crf_max=0.0 / nal_hrd=none / filler=0 / ip_ratio=1.40 / aq=1:1.00
    Language                                 : English
    Default                                  : Yes
    Forced                                   : No
    Color range                              : Limited
    Color primaries                          : BT.709
    Transfer characteristics                 : BT.709
    Matrix coefficients                      : BT.709
    Statistics Tags Issue                    : mkvmerge v15.0.0 ('Duel with the Devil') 64-bit 2017-11-04 05:43:28 / mkvmerge v15.0.0 ('Duel with the Devil') 64-bit 2017-11-04 05:43:28 / UTC 2017-09-11T05:01:11Z
    FromStats_BitRate                        : 5483147
    FromStats_Duration                       : 02:21:34.695000000
    FromStats_FrameCount                     : 203669
    FromStats_StreamSize                     : 5822207989

    Audio #1
    ID                                       : 2
    Format                                   : AC-3
    Format/Info                              : Audio Coding 3
    Format settings, Endianness              : Big
    Codec ID                                 : A_AC3
    Duration                                 : 2 h 21 min
    Bit rate mode                            : Constant
    Bit rate                                 : 640 kb/s
    Channel(s)                               : 6 channels
    Channel positions                        : Front: L C R, Side: L R, LFE
    Sampling rate                            : 48.0 kHz
    Frame rate                               : 31.250 FPS (1536 SPF)
    Bit depth                                : 16 bits
    Compression mode                         : Lossy
    Stream size                              : 648 MiB (8%)
    Title                                    : Latino-AC3
    Language                                 : Spanish
    Service kind                             : Complete Main
    Default                                  : Yes
    Forced                                   : No
    Statistics Tags Issue                    : mkvmerge v15.0.0 ('Duel with the Devil') 64-bit 2017-11-04 05:43:28 / mkvmerge v15.0.0 ('Duel with the Devil') 64-bit 2017-11-04 05:43:28 / UTC 2017-09-11T05:01:11Z
    FromStats_BitRate                        : 640000
    FromStats_Duration                       : 02:21:34.848000000
    FromStats_FrameCount                     : 265464
    FromStats_StreamSize                     : 679587840

    Audio #2
    ID                                       : 3
    Format                                   : DTS
    Format/Info                              : Digital Theater Systems
    Mode                                     : 16
    Format settings, Endianness              : Big
    Codec ID                                 : A_DTS
    Duration                                 : 2 h 21 min
    Bit rate mode                            : Constant
    Bit rate                                 : 1 509 kb/s
    Channel(s)                               : 6 channels
    Channel positions                        : Front: L C R, Side: L R, LFE
    Sampling rate                            : 48.0 kHz
    Frame rate                               : 93.750 FPS (512 SPF)
    Bit depth                                : 16 bits
    Compression mode                         : Lossy
    Stream size                              : 1.49 GiB (20%)
    Title                                    : Ingles-DTS
    Language                                 : English
    Default                                  : No
    Forced                                   : No
    Statistics Tags Issue                    : mkvmerge v15.0.0 ('Duel with the Devil') 64-bit 2017-11-04 05:43:28 / mkvmerge v15.0.0 ('Duel with the Devil') 64-bit 2017-11-04 05:43:28 / UTC 2017-09-11T05:01:11Z
    FromStats_BitRate                        : 1509000
    FromStats_Duration                       : 02:21:34.752000000
    FromStats_FrameCount                     : 796383
    FromStats_StreamSize                     : 1602322596

    Text #1
    ID                                       : 4
    Format                                   : PGS
    Muxing mode                              : zlib
    Codec ID                                 : S_HDMV/PGS
    Codec ID/Info                            : Picture based subtitle format used on BDs/HD-DVDs
    Language                                 : Spanish
    Default                                  : No
    Forced                                   : No
    Statistics Tags Issue                    : mkvmerge v15.0.0 ('Duel with the Devil') 64-bit 2017-11-04 05:43:28 / mkvmerge v15.0.0 ('Duel with the Devil') 64-bit 2017-11-04 05:43:28 / UTC 2017-09-11T05:01:11Z
    FromStats_BitRate                        : 27003
    FromStats_Duration                       : 02:20:30.275000000
    FromStats_FrameCount                     : 3416
    FromStats_StreamSize                     : 28456027

    Text #2
    ID                                       : 5
    Format                                   : PGS
    Muxing mode                              : zlib
    Codec ID                                 : S_HDMV/PGS
    Codec ID/Info                            : Picture based subtitle format used on BDs/HD-DVDs
    Language                                 : English
    Default                                  : No
    Forced                                   : No
    Statistics Tags Issue                    : mkvmerge v15.0.0 ('Duel with the Devil') 64-bit 2017-11-04 05:43:28 / mkvmerge v15.0.0 ('Duel with the Devil') 64-bit 2017-11-04 05:43:28 / UTC 2017-09-11T05:01:11Z
    FromStats_BitRate                        : 25689
    FromStats_Duration                       : 02:19:53.281000000
    FromStats_FrameCount                     : 4287
    FromStats_StreamSize                     : 26952313

    Menu
    00:00:00.000                             : :Chapter 1
    00:07:04.966                             : :Chapter 2
    00:14:28.242                             : :Chapter 3
    00:20:13.879                             : :Chapter 4
    00:29:27.140                             : :Chapter 5
    00:39:02.632                             : :Chapter 6
    00:50:56.845                             : :Chapter 7
    00:59:52.798                             : :Chapter 8
    01:08:53.171                             : :Chapter 9
    01:16:19.241                             : :Chapter 10
    01:25:27.748                             : :Chapter 11
    01:35:23.301                             : :Chapter 12
    01:41:30.376                             : :Chapter 13
    01:49:18.260                             : :Chapter 14
    01:57:00.055                             : :Chapter 15
    02:04:44.394                             : :Chapter 16

  • Peso: 7.57 GiB

Sinopsis

Peter Parker lleva una vida muy ocupada, compaginando su tiempo entre su papel como Spider-Man, acabando con los malos, y en el instituto con la persona a la que quiere, Gwen. Peter no ve el momento de graduarse. No ha olvidado la promesa que le hizo al padre de Gwen de protegerla, manteniéndose lejos de ella, pero es una promesa que simplemente no puede cumplir. Las cosas cambiarán para Peter cuando aparece un nuevo villano, Electro, y un viejo amigo, Harry Osborn, regresa, al tiempo que descubre nuevas pistas sobre su pasado.

 

 

Nota: Rip de un 4K

Ficha técnica

Video trailer de la película

Enlaces de descarga

Descargar The Amazing Spider-Man 2: El poder de Electro (2014) Full 1080p Latino
Descargar

dpeliculas

Aportes de DPeliculasHDmega la pass es:dpeliculashdmega.org Aportes de CinemaniaHD la pass es:cinemaniahdd.com

Películas relacionadas

  • Locos por las nueces 2 (2017) 1080p Latino

    2017
    Locos por las nueces 2 (2017) 1080p Latino

    0.0 1h 35m 2017

    Continuación de Operación cacahuete en la que conoceremos las nuevas aventuras de la malhumorada ardilla...

    Director: Callan Brunker

    Género: Animación

    Actores: Will Arnett

  • The Guardian Brothers (2016) WEB-DL 1080p Latino

    2016
    The Guardian Brothers (2016) WEB-DL 1080p Latino

    2.0 1 h 20 min 2016

    Hay una crisis en el mundo espiritual de China: ¡los humanos ya no creen en los dioses! Un Dios de la...

    Director: Gary Wang

    Género: Animación

    Actores: Xiaoxing Yi

  • El vagón de la muerte (2008) UNRATED Full 1080p Latino

    2008
    El vagón de la muerte (2008) UNRATED Full 1080p Latino

    0.0 1 h 42 min 2008

    La dueña de una exitosa galería de arte le propone al fotógrafo Leon Kauffman llevar a cabo un trabajo...

    Director: Ryûhei Kitamura

    Género: Crimen

    Actores: Vinnie Jones

  • Pilgrimage (2017) WEB-DL 1080p Latino

    2017
    Pilgrimage (2017) WEB-DL 1080p Latino

    0.0 1 h 36 min 2017

    “Roma ha hablado”, con esa frase unos monjes cristianos deben comenzar la peregrinación hacia Roma...

    Director: Sophie Higel

    Género: Acción

    Actores: Tristan McConnell

Comentarios 6
  • Jose - 04 noviembre, 2017

    Hola, hace algunos días estoy teniendo problemas con los pastes, absolutamente todos me llevan al error 404, alguna idea de que es lo que me puede estar fallando??
    Les dejo una captura del error: http://i68.tinypic.com/34hxq2q.jpg

    • Dpelis2 pelis2

      Autor
      - 05 noviembre, 2017

      Prueba desde otro navegador o en modo incógnito. Saludos

      • Jose - 05 noviembre, 2017

        Gracias por responder, pero precisamente eso lo mas raro de mi caso, no me anda en firefox, ni en chrome ni en explorer. Tampoco desde otra computadora. No entiendo que pudo haber pasado ya que hasta hace unos 5 dias podia descargar todo con normalidad. Saludos!!

        • dpelis

          Administrador
          - 05 noviembre, 2017

          cambie ip con extencion hola para chrome,

  • Aldair Jesus - 04 noviembre, 2017

    Duda, que tiene de diferencia o que tiene de detalle que sea rip de un 4K

    • Dpelis2 pelis2

      Autor
      - 05 noviembre, 2017

      Que como se hizo un Rip con mas resolución Mayor, al pasarla en un 1080p se ve mas detallado y mejor calidad de imagen Saludos