Terror 5 (2016) 1080p Latino

1.734 vistas
1 estrella2 estrellas3 estrellas4 estrellas5 estrellas (Ninguna valoración todavía)
Cargando…

Información de Terror 5 (2016) 1080p Latino

Datos de la película

  • Calidad: 1080p
  • Audio: Español Latino AC3 5.1 BLURAY
  • Subtitulos: No
  • Resolución: 1920x804p
  • Formato: MKV
  • Codec: H.264
  • Encoder: Dpelis
  • Mediainfo: Ver Ver
  • Terror.5.2016.1080p.Latino.mkv
    Format                      : Matroska
    Format version              : Version 4 / Version 2
    File size                   : 2.10 GiB
    Duration                    : 1 h 18 min
    Overall bit rate            : 3 858 kb/s
    Movie name                  : DPeliculasHDMega.ORG
    Encoded date                : UTC 2017-05-18 19:45:06 / UTC 2017-05-18T18:07:13Z
    Writing application         : mkvmerge v10.0.0 ('To Drown In You') 64bit
    Writing library             : libebml v1.3.4 + libmatroska v1.4.5 / Lavf57.7.2

    Video
    ID                          : 1
    Format                      : AVC
    Format/Info                 : Advanced Video Codec
    Format profile              : [email protected]
    Format settings, CABAC      : Yes
    Format settings, ReFrames   : 4 frames
    Codec ID                    : V_MPEG4/ISO/AVC
    Duration                    : 1 h 18 min
    Bit rate                    : 3 500 kb/s
    Width                       : 1 920 pixels
    Height                      : 804 pixels
    Display aspect ratio        : 2.40:1
    Frame rate mode             : Constant
    Frame rate                  : 23.976 (24000/1001) FPS
    Color space                 : YUV
    Chroma subsampling          : 4:2:0
    Bit depth                   : 8 bits
    Scan type                   : Progressive
    Bits/(Pixel*Frame)          : 0.095
    Stream size                 : 1.85 GiB (88%)
    Writing library             : x264 core 148 r2708 86b7198
    Encoding settings           : cabac=1 / ref=3 / deblock=1:0:0 / analyse=0x3:0x113 / me=hex / subme=7 / psy=1 / psy_rd=1.00:0.00 / mixed_ref=1 / me_range=16 / chroma_me=1 / trellis=1 / 8x8dct=1 / cqm=0 / deadzone=21,11 / fast_pskip=1 / chroma_qp_offset=-2 / threads=12 / lookahead_threads=2 / sliced_threads=0 / nr=0 / decimate=1 / interlaced=0 / bluray_compat=0 / constrained_intra=0 / bframes=3 / b_pyramid=2 / b_adapt=1 / b_bias=0 / direct=1 / weightb=1 / open_gop=0 / weightp=2 / keyint=240 / keyint_min=24 / scenecut=40 / intra_refresh=0 / rc_lookahead=40 / rc=abr / mbtree=1 / bitrate=3500 / ratetol=1.0 / qcomp=0.60 / qpmin=0 / qpmax=69 / qpstep=4 / vbv_maxrate=62500 / vbv_bufsize=78125 / nal_hrd=none / filler=0 / ip_ratio=1.40 / aq=1:1.00
    Default                     : Yes
    Forced                      : No
    Color range                 : Limited
    Color primaries             : BT.709
    Transfer characteristics    : BT.709
    Matrix coefficients         : BT.709
    Statistics Tags Issue       : mkvmerge v10.0.0 ('To Drown In You') 64bit 2017-05-18 19:45:06 / mkvmerge v10.0.0 ('To Drown In You') 64bit 2017-05-18 19:45:06 / UTC 2017-05-18T18:07:13Z
    FromStats_BitRate           : 3472014
    FromStats_Duration          : 01:18:03.054000000
    FromStats_FrameCount        : 112281
    FromStats_StreamSize        : 2032454005

    Audio
    ID                          : 2
    Format                      : AC-3
    Format/Info                 : Audio Coding 3
    Format settings, Endianness : Big
    Codec ID                    : A_AC3
    Duration                    : 1 h 18 min
    Bit rate mode               : Constant
    Bit rate                    : 384 kb/s
    Channel(s)                  : 6 channels
    Channel positions           : Front: L C R, Side: L R, LFE
    Sampling rate               : 48.0 kHz
    Frame rate                  : 31.250 FPS (1536 spf)
    Bit depth                   : 16 bits
    Compression mode            : Lossy
    Stream size                 : 214 MiB (10%)
    Service kind                : Complete Main
    Default                     : Yes
    Forced                      : No
    Statistics Tags Issue       : mkvmerge v10.0.0 ('To Drown In You') 64bit 2017-05-18 19:45:06 / mkvmerge v10.0.0 ('To Drown In You') 64bit 2017-05-18 19:45:06 / UTC 2017-05-18T18:07:13Z
    FromStats_BitRate           : 384000
    FromStats_Duration          : 01:18:03.072000000
    FromStats_FrameCount        : 146346
    FromStats_StreamSize        : 224787456

    Text
    ID                          : 3
    Format                      : UTF-8
    Codec ID                    : S_TEXT/UTF8
    Codec ID/Info               : UTF-8 Plain Text
    Language                    : Spanish
    Default                     : Yes
    Forced                      : No
    Statistics Tags Issue       : mkvmerge v10.0.0 ('To Drown In You') 64bit 2017-05-18 19:45:06 / mkvmerge v10.0.0 ('To Drown In You') 64bit 2017-05-18 19:45:06 / UTC 2017-05-18T18:07:13Z
    FromStats_BitRate           : 91
    FromStats_Duration          : 00:00:10.100000000
    FromStats_FrameCount        : 1
    FromStats_StreamSize        : 115

    Menu
    00:00:00.000                : :Chapter 1
    00:08:18.164                : :Chapter 2
    00:13:22.593                : :Chapter 3
    00:18:04.083                : :Chapter 4
    00:24:53.200                : :Chapter 5
    00:32:10.887                : :Chapter 6
    00:40:14.662                : :Chapter 7
    00:45:46.744                : :Chapter 8
    00:50:02.082                : :Chapter 9
    00:56:35.976                : :Chapter 10
    01:02:54.479                : :Chapter 11
    01:11:46.886                : :Chapter 12

  • Peso: 2.10 GB

Sinopsis

Mientras que la mayoría de los habitantes de una pequeña ciudad en Argentina para asistir a un funeral en un derrumbe de un edificio trágica, las pocas personas que no se enfrentan a este mashup terrores de leyendas urbanas hermanos Sebastián y Federico Rotstein. Piense la esclavitud, la tortura, los zombis … y la corrupción gubernamental. Juan se encuentra con Sonia a una escuela donde los estudiantes se dan cuenta de los maestros. Luco y Paulo ha creado un plan detallado para el intercambio de esposas. Dos amantes huyen en un motel para una noche de pasión, mientras que un grupo de amigos disfrutando de una película de tabaco. Al igual que sus impulsos primitivos distraen a todos, los funcionarios locales son juzgados por negligencia inocente causaron el derrumbe del edificio y el horror comienza realmente.

Ficha técnica

Imágenes, Capturas de la película

Video trailer de la película

Enlaces de descarga

Descargar Terror 5 (2016) 1080p Latino
Descargar

dpeliculas

Aportes de DPeliculasHDmega la pass es:dpeliculashdmega.org Aportes de CinemaniaHD la pass es:cinemaniahdd.com
Guardado en : Terror

PelícuDelas relacionadas

  • A 47 metros (2017) WEBDL 1080p Subtitulada

    2017
    A 47 metros (2017) WEBDL 1080p Subtitulada

    3.0 1h 27m 2017

    Descargar 47 Metros una pelicula de Terror Durante una inmersión, dos hermanas de vacaciones en México...

    Director: Johannes Roberts

    Género: Suspense

    Actores: Yani Gellman

  • Little Evil (2017) 1080p WEB-DL Latino

    2017
    Little Evil (2017) 1080p WEB-DL Latino

    4.5 0h 0m 2017

    Descargar gratis Little Evil (2017) 1080p WEB-DL Latino. Gary, que acba de casarse con Samantha, la...

    Director: Eli Craig

    Género: Comedia

    Actores: Tyler Labine

  • Dead Again in Tombstone (2017) 1080p Latino

    2017
    Dead Again in Tombstone (2017) 1080p Latino

    0.0 1h 39m 2017

    Guerrero (Danny Trejo, Machete) regresa de los muertos otra vez en este western lleno de acción que...

    Director: Roel Reiné

    Género: Acción

    Actores: Peter Skagen

  • Jason X (2001) Full Latino

    2001
    Jason X (2001) Full Latino

    5.0 1h 31m 2001

    Descargar gratis Jason X (2001) Ful Latino Mega. En el año 2445, la Tierra es un lugar contaminado al...

    Director: James Isaac

    Género: Ciencia ficción

    Actores: Todd Farmer

Comentarios 0