Suits (2017) Temporada 7 WEB-DL 1080p Latino [Actualiza-ble]

625 vistas
1 estrella2 estrellas3 estrellas4 estrellas5 estrellas (Ninguna valoración todavía)
Cargando…

Información de Suits (2017) Temporada 7 WEB-DL 1080p Latino [Actualiza-ble]

Datos de la película

  • Calidad: WEBDL
  • Audio: Se especifica abajo de la Sinopsis
  • Subtitulos: Español Latino SRT - Ingles SRT
  • Resolución: 1920x1080p
  • Formato: MKV
  • Codec: H.264
  • Encoder: Dpelis1
  • Mediainfo: Ver Ver
  • Video
    ID                                       : 1
    Format                                   : AVC
    Format/Info                              : Advanced Video Codec
    Format profile                           : [email protected]
    Format settings, CABAC                   : Yes
    Format settings, RefFrames               : 3 frames
    Codec ID                                 : V_MPEG4/ISO/AVC
    Duration                                 : 45 min 14 s
    Bit rate mode                            : Variable
    Bit rate                                 : 5 800 kb/s
    Maximum bit rate                         : 8 700 kb/s
    Width                                    : 1 920 pixels
    Height                                   : 1 080 pixels
    Display aspect ratio                     : 16:9
    Frame rate mode                          : Constant
    Frame rate                               : 23.976 (24000/1001) FPS
    Color space                              : YUV
    Chroma subsampling                       : 4:2:0
    Bit depth                                : 8 bits
    Scan type                                : Progressive
    Bits/(Pixel*Frame)                       : 0.117
    Stream size                              : 1.79 GiB (88%)
    Writing library                          : x264 core 118
    Encoding settings                        : cabac=1 / ref=3 / deblock=1:0:0 / analyse=0x1:0x111 / me=umh / subme=10 / psy=1 / psy_rd=1.00:0.00 / mixed_ref=1 / me_range=24 / chroma_me=1 / trellis=2 / 8x8dct=0 / cqm=0 / deadzone=21,11 / fast_pskip=1 / chroma_qp_offset=-2 / threads=8 / sliced_threads=0 / nr=0 / decimate=1 / interlaced=0 / bluray_compat=0 / constrained_intra=0 / bframes=2 / b_pyramid=0 / b_adapt=2 / b_bias=0 / direct=3 / weightb=1 / open_gop=0 / weightp=2 / keyint=48 / keyint_min=25 / scenecut=0 / intra_refresh=0 / rc_lookahead=0 / rc=2pass / mbtree=1 / bitrate=5800 / ratetol=1.0 / qcomp=0.50 / qpmin=6 / qpmax=51 / qpstep=4 / cplxblur=20.0 / qblur=0.5 / vbv_maxrate=8700 / vbv_bufsize=11600 / nal_hrd=vbr / ip_ratio=1.40 / aq=1:1.00
    Default                                  : Yes
    Forced                                   : No
    Statistics Tags Issue                    : mkvmerge v10.0.0 ('To Drown In You') 64bit 2017-08-30 02:33:32 / mkvmerge v10.0.0 ('To Drown In You') 64bit 2017-08-30 02:33:32 / UTC 2017-07-11 04:59:23
    FromStats_BitRate                        : 5788375
    FromStats_Duration                       : 00:45:14.420000000
    FromStats_FrameCount                     : 65081
    FromStats_StreamSize                     : 1964010427

    Audio #1
    ID                                       : 2
    Format                                   : AC-3
    Format/Info                              : Audio Coding 3
    Format settings, Endianness              : Big
    Codec ID                                 : A_AC3
    Duration                                 : 45 min 14 s
    Bit rate mode                            : Constant
    Bit rate                                 : 256 kb/s
    Channel(s)                               : 2 channels
    Channel positions                        : Front: L R
    Sampling rate                            : 48.0 kHz
    Frame rate                               : 31.250 FPS (1536 SPF)
    Bit depth                                : 16 bits
    Compression mode                         : Lossy
    Stream size                              : 82.8 MiB (4%)
    Language                                 : Spanish
    Service kind                             : Complete Main
    Default                                  : Yes
    Forced                                   : No
    Statistics Tags Issue                    : mkvmerge v10.0.0 ('To Drown In You') 64bit 2017-08-30 02:33:32 / mkvmerge v10.0.0 ('To Drown In You') 64bit 2017-08-30 02:33:32 / UTC 2017-07-11 04:59:23
    FromStats_BitRate                        : 256000
    FromStats_Duration                       : 00:45:14.144000000
    FromStats_FrameCount                     : 84817
    FromStats_StreamSize                     : 86852608

    Audio #2
    ID                                       : 3
    Format                                   : AC-3
    Format/Info                              : Audio Coding 3
    Format settings, Endianness              : Big
    Codec ID                                 : A_AC3
    Duration                                 : 45 min 14 s
    Bit rate mode                            : Constant
    Bit rate                                 : 384 kb/s
    Channel(s)                               : 6 channels
    Channel positions                        : Front: L C R, Side: L R, LFE
    Sampling rate                            : 48.0 kHz
    Frame rate                               : 31.250 FPS (1536 SPF)
    Bit depth                                : 16 bits
    Compression mode                         : Lossy
    Stream size                              : 124 MiB (6%)
    Language                                 : English
    Service kind                             : Complete Main
    Default                                  : No
    Forced                                   : No
    Encoded date                             : UTC 2017-07-11 04:59:23
    Statistics Tags Issue                    : mkvmerge v10.0.0 ('To Drown In You') 64bit 2017-08-30 02:33:32 / mkvmerge v10.0.0 ('To Drown In You') 64bit 2017-08-30 02:33:32 / UTC 2017-07-11 04:59:23
    FromStats_BitRate                        : 384000
    FromStats_Duration                       : 00:45:14.144000000
    FromStats_FrameCount                     : 84817
    FromStats_StreamSize                     : 130278912

    Text #1
    ID                                       : 4
    Format                                   : UTF-8
    Codec ID                                 : S_TEXT/UTF8
    Codec ID/Info                            : UTF-8 Plain Text
    Default                                  : Yes
    Forced                                   : No
    Statistics Tags Issue                    : mkvmerge v10.0.0 ('To Drown In You') 64bit 2017-08-30 02:33:32 / mkvmerge v10.0.0 ('To Drown In You') 64bit 2017-08-30 02:33:32 / UTC 2017-07-11 04:59:23
    FromStats_BitRate                        : 87
    FromStats_Duration                       : 00:00:10.100000000
    FromStats_FrameCount                     : 1
    FromStats_StreamSize                     : 110

    Text #2
    ID                                       : 5
    Format                                   : UTF-8
    Codec ID                                 : S_TEXT/UTF8
    Codec ID/Info                            : UTF-8 Plain Text
    Title                                    : Spanish
    Language                                 : Spanish
    Default                                  : No
    Forced                                   : No
    Statistics Tags Issue                    : mkvmerge v10.0.0 ('To Drown In You') 64bit 2017-08-30 02:33:32 / mkvmerge v10.0.0 ('To Drown In You') 64bit 2017-08-30 02:33:32 / UTC 2017-07-11 04:59:23
    FromStats_BitRate                        : 100
    FromStats_Duration                       : 00:45:12.109000000
    FromStats_FrameCount                     : 789
    FromStats_StreamSize                     : 34215

    Text #3
    ID                                       : 6
    Format                                   : UTF-8
    Codec ID                                 : S_TEXT/UTF8
    Codec ID/Info                            : UTF-8 Plain Text
    Title                                    : English
    Language                                 : English
    Default                                  : No
    Forced                                   : No
    Statistics Tags Issue                    : mkvmerge v10.0.0 ('To Drown In You') 64bit 2017-08-30 02:33:32 / mkvmerge v10.0.0 ('To Drown In You') 64bit 2017-08-30 02:33:32 / UTC 2017-07-11 04:59:23
    FromStats_BitRate                        : 123
    FromStats_Duration                       : 00:45:01.406000000
    FromStats_FrameCount                     : 1084
    FromStats_StreamSize                     : 41584

  • Peso: 2 GB Aprox por Capitulo

Sinopsis

Descargar gratis Suits (2017) Temporada 7 WEB-DL 1080p Latino. Michael Ross se gana la vida sobre la delgada línea de la legalidad. Es un joven con una inteligencia abrumadora, pero las malas compañías con las que se junta en la universidad le hicieron salirse y buscar una opción más vistosa a corto plazo, mejorar su economía. Entre sus triquiñuelas destaca el número de veces que se presenta en nombre de otros a los exámenes de corte de derecho. El azar le acabará situando en el despacho de uno de los abogados más jóvenes y brillantes de Manhattan, Harvey Specter. La inteligencia y dotes de Michel le asombrarán tanto que le tomará como su pupilo, a pesar de que no tenga la licenciatura. Juntos trabajarán mano a mano, ocultándole al resto del mundo la verdad: que juntos sólo suman un sólo título universitario.

Nota: Latino AC3 2.0 (Captura de la TV) – Ingles AC3 5.1 (Netflix)

Ficha técnica

  • Titulo original: Suits (La clave del éxito) (2011)
  • Fecha de lanzamiento: --2011/05/23 (United States of America)
  • Director: Aaron Korsh
  • Género: Drama, Series
  • Puntuación: 0.0 0 votos
  • Duración:
    45 Min.

Imágenes, Capturas de la película

Video trailer de la película

Enlaces de descarga

Descargar Suits (2017) Temporada 7 WEB-DL 1080p Latino [Actualiza-ble]
Descargar

dpeliculas

Aportes de DPeliculasHDmega la pass es:dpeliculashdmega.org Aportes de CinemaniaHD la pass es:cinemaniahdd.com
Guardado en : Drama , Series

PelícuDelas relacionadas

Comentarios 6
  • hcmancilla - 01 septiembre, 2017

    EXCELENTE SERIES,, FAVOR DE SUBIR LAS TEMPORADAS ANTERIORES. CON EXCELENTE CALIDAD

  • Pansh - 01 septiembre, 2017

    Subirán las demás temporadas? es muy buena serie

    • dpelis

      Administrador
      - 03 septiembre, 2017

      si estimado

  • jgava - 31 agosto, 2017

    gracias exelente aporte..una gran seria mi favorita la estaba esperando

  • Pansh - 30 agosto, 2017

    Buen dia estimado, subirás las temporadas anteriores? de la 1 a la 7? eso estaría genial!

    • dpelis

      Administrador
      - 03 septiembre, 2017

      se agregaran despues, por el momento solo estreno