Starship Troopers: Traitor of Mars (2017) 1080p Latino

3.106 vistas
1 estrella2 estrellas3 estrellas4 estrellas5 estrellas (1 votos, promedio: 5,00 de 5)
Cargando…

Información de Starship Troopers: Traitor of Mars (2017) 1080p Latino

Datos de la película

  • Calidad: 1080p
  • Audio: Español Latino AC3 5.1 BLURAY - Ingles AC3 5.1 BLURAY
  • Subtitulos: Español Latino SRT - Ingles SRT
  • Resolución: 1920x1080p
  • Formato: MKV
  • Codec: H.264
  • Encoder: Dpelis
  • Mediainfo: Ver Ver
  • Starship Troopers Traitors Mars (2017) 1080p Latino.mkv
    Format                      : Matroska
    Format version              : Version 4 / Version 2
    File size                   : 2.61 GiB
    Duration                    : 1 h 27 min
    Overall bit rate            : 4 264 kb/s
    Movie name                  : DPeliculasHDMega.ORG
    Encoded date                : UTC 2017-09-14 23:20:37 / UTC 2017-09-14T21:51:41Z
    Writing application         : mkvmerge v10.0.0 ('To Drown In You') 64bit
    Writing library             : libebml v1.3.4 + libmatroska v1.4.5 / Lavf57.7.2

    Video
    ID                          : 1
    Format                      : AVC
    Format/Info                 : Advanced Video Codec
    Format profile              : [email protected]
    Format settings, CABAC      : Yes
    Format settings, RefFrames  : 4 frames
    Codec ID                    : V_MPEG4/ISO/AVC
    Duration                    : 1 h 27 min
    Bit rate                    : 3 500 kb/s
    Width                       : 1 920 pixels
    Height                      : 1 080 pixels
    Display aspect ratio        : 16:9
    Frame rate mode             : Constant
    Frame rate                  : 23.976 (24000/1001) FPS
    Color space                 : YUV
    Chroma subsampling          : 4:2:0
    Bit depth                   : 8 bits
    Scan type                   : Progressive
    Bits/(Pixel*Frame)          : 0.070
    Stream size                 : 2.09 GiB (80%)
    Writing library             : x264 core 148 r2708 86b7198
    Encoding settings           : cabac=1 / ref=3 / deblock=1:0:0 / analyse=0x3:0x113 / me=hex / subme=7 / psy=1 / psy_rd=1.00:0.00 / mixed_ref=1 / me_range=16 / chroma_me=1 / trellis=1 / 8x8dct=1 / cqm=0 / deadzone=21,11 / fast_pskip=1 / chroma_qp_offset=-2 / threads=12 / lookahead_threads=2 / sliced_threads=0 / nr=0 / decimate=1 / interlaced=0 / bluray_compat=0 / constrained_intra=0 / bframes=3 / b_pyramid=2 / b_adapt=1 / b_bias=0 / direct=1 / weightb=1 / open_gop=0 / weightp=2 / keyint=240 / keyint_min=24 / scenecut=40 / intra_refresh=0 / rc_lookahead=40 / rc=abr / mbtree=1 / bitrate=3500 / ratetol=1.0 / qcomp=0.60 / qpmin=0 / qpmax=69 / qpstep=4 / vbv_maxrate=62500 / vbv_bufsize=78125 / nal_hrd=none / filler=0 / ip_ratio=1.40 / aq=1:1.00
    Default                     : Yes
    Forced                      : No
    Color range                 : Limited
    Color primaries             : BT.709
    Transfer characteristics    : BT.709
    Matrix coefficients         : BT.709
    Statistics Tags Issue       : mkvmerge v10.0.0 ('To Drown In You') 64bit 2017-09-14 23:20:37 / mkvmerge v10.0.0 ('To Drown In You') 64bit 2017-09-14 23:20:37 / UTC 2017-09-14T21:51:41Z
    FromStats_BitRate           : 3494050
    FromStats_Duration          : 01:27:44.259000000
    FromStats_FrameCount        : 126216
    FromStats_StreamSize        : 2299198504

    Audio #1
    ID                          : 2
    Format                      : AC-3
    Format/Info                 : Audio Coding 3
    Format settings, Endianness : Big
    Codec ID                    : A_AC3
    Duration                    : 1 h 27 min
    Bit rate mode               : Constant
    Bit rate                    : 384 kb/s
    Channel(s)                  : 6 channels
    Channel positions           : Front: L C R, Side: L R, LFE
    Sampling rate               : 48.0 kHz
    Frame rate                  : 31.250 FPS (1536 SPF)
    Bit depth                   : 16 bits
    Compression mode            : Lossy
    Delay relative to video     : -5 ms
    Stream size                 : 241 MiB (9%)
    Language                    : Spanish
    Service kind                : Complete Main
    Default                     : Yes
    Forced                      : No
    Statistics Tags Issue       : mkvmerge v10.0.0 ('To Drown In You') 64bit 2017-09-14 23:20:37 / mkvmerge v10.0.0 ('To Drown In You') 64bit 2017-09-14 23:20:37 / UTC 2017-09-14T21:51:41Z
    FromStats_BitRate           : 384000
    FromStats_Duration          : 01:27:44.320000000
    FromStats_FrameCount        : 164510
    FromStats_StreamSize        : 252687360

    Audio #2
    ID                          : 3
    Format                      : AC-3
    Format/Info                 : Audio Coding 3
    Format settings, Endianness : Big
    Codec ID                    : A_AC3
    Duration                    : 1 h 27 min
    Bit rate mode               : Constant
    Bit rate                    : 384 kb/s
    Channel(s)                  : 6 channels
    Channel positions           : Front: L C R, Side: L R, LFE
    Sampling rate               : 48.0 kHz
    Frame rate                  : 31.250 FPS (1536 SPF)
    Bit depth                   : 16 bits
    Compression mode            : Lossy
    Delay relative to video     : -5 ms
    Stream size                 : 241 MiB (9%)
    Title                       : Surround
    Language                    : English
    Service kind                : Complete Main
    Default                     : No
    Forced                      : No
    Statistics Tags Issue       : mkvmerge v10.0.0 ('To Drown In You') 64bit 2017-09-14 23:20:37 / mkvmerge v10.0.0 ('To Drown In You') 64bit 2017-09-14 23:20:37 / UTC 2017-09-14T21:51:41Z
    FromStats_BitRate           : 384000
    FromStats_Duration          : 01:27:44.256000000
    FromStats_FrameCount        : 164508
    FromStats_StreamSize        : 252684288

    Text #1
    ID                          : 4
    Format                      : UTF-8
    Codec ID                    : S_TEXT/UTF8
    Codec ID/Info               : UTF-8 Plain Text
    Language                    : Spanish
    Default                     : No
    Forced                      : No
    Statistics Tags Issue       : mkvmerge v10.0.0 ('To Drown In You') 64bit 2017-09-14 23:20:37 / mkvmerge v10.0.0 ('To Drown In You') 64bit 2017-09-14 23:20:37 / UTC 2017-09-14T21:51:41Z
    FromStats_BitRate           : 61
    FromStats_Duration          : 01:22:20.650000000
    FromStats_FrameCount        : 1168
    FromStats_StreamSize        : 37889

    Text #2
    ID                          : 5
    Format                      : UTF-8
    Codec ID                    : S_TEXT/UTF8
    Codec ID/Info               : UTF-8 Plain Text
    Language                    : English
    Default                     : No
    Forced                      : No
    Statistics Tags Issue       : mkvmerge v10.0.0 ('To Drown In You') 64bit 2017-09-14 23:20:37 / mkvmerge v10.0.0 ('To Drown In You') 64bit 2017-09-14 23:20:37 / UTC 2017-09-14T21:51:41Z
    FromStats_BitRate           : 82
    FromStats_Duration          : 01:26:58.489000000
    FromStats_FrameCount        : 1413
    FromStats_StreamSize        : 53818

    Menu
    00:00:00.000                : :Chapter 1
    00:06:52.787                : :Chapter 2
    00:11:49.167                : :Chapter 3
    00:15:55.955                : :Chapter 4
    00:22:11.080                : :Chapter 5
    00:28:16.278                : :Chapter 6
    00:34:40.203                : :Chapter 7
    00:38:02.030                : :Chapter 8
    00:41:06.547                : :Chapter 9
    00:51:04.478                : :Chapter 10
    00:56:53.410                : :Chapter 11
    01:02:22.280                : :Chapter 12
    01:06:19.934                : :Chapter 13
    01:13:16.183                : :Chapter 14
    01:18:20.070                : :Chapter 15
    01:22:40.998                : :Chapter 16

  • Peso: 2.61 GB

Sinopsis

Rico ha sido degradado y enviado a una estación satélite de Marte, donde se ocupará de entrenar a un grupo de reclutas. Por supuesto no tardarán en aparecer los conocidos bichos. Secuela de Starship Troopers: Invasion

Ficha técnica

Imágenes, Capturas de la película

Video trailer de la película

Enlaces de descarga

Descargar Starship Troopers: Traitor of Mars (2017) 1080p Latino
Descargar

dpeliculas

Aportes de DPeliculasHDmega la pass es:dpeliculashdmega.org Aportes de CinemaniaHD la pass es:cinemaniahdd.com

PelícuDelas relacionadas

  • La momia (2017) 3D OU 1080p Latino

    2017
    La momia (2017) 3D OU 1080p Latino

    0.0 1h 50m 2017

    Descargar gratis La momia (2017) 3D OU 1080p Latino. A pesar de estar enterrada en una tumba en lo más...

    Director: Jo Beckett

    Género: 3D Half OU

    Actores: Vera Chok

  • Enredados otra vez (2017) WEBDL 1080p Latino

    2017
    Enredados otra vez (2017) WEBDL 1080p Latino

    5.0 0h 55m 2017

    Descargar Pelicula Tangled: Before Ever After Calidad WEBDL Latino¡Mientras Rapunzel se prepara para...

    Director: Tom Caulfield

    Género: Animación

    Actores: Zachary Levi

  • Shopkins Chef Club (2016) 1080p WEB-DL Latino

    2016
    Shopkins Chef Club (2016) 1080p WEB-DL Latino

    0.0 0h 0m 2016

    La vida nunca es ordinaria en Shopville, pero las cosas están a punto de obtener un poco extraordinario...

    Director: Raymond McGrath

    Género: Animación

    Actores: Marieve Herington

Comentarios 2
  • itthan - 23 agosto, 2017

    Ooohhh ya salio, gracias por la peli, dentro de cuanto sacaran la version plateada?

    • dpelis

      Administrador
      - 23 agosto, 2017

      posible una semana o mas