Starship Troopers: Traitor of Mars (2017) Full 1080p Latino

1.204 vistas
1 estrella2 estrellas3 estrellas4 estrellas5 estrellas (1 votos, promedio: 2,00 de 5)
Cargando…

Información de Starship Troopers: Traitor of Mars (2017) Full 1080p Latino

Datos de la película

  • Calidad: Full 1080p
  • Audio: Español Latino AC3 5.1 BLURAY - Ingles DTS 5.1 BLURAY
  • Subtitulos: Español Latino PGS - Ingles PGS
  • Resolución: 1920x1080p
  • Formato: MKV
  • Codec: H.264
  • Encoder: Dpelis1
  • Mediainfo: Ver Ver
  • Video
    ID                                       : 1
    Format                                   : AVC
    Format/Info                              : Advanced Video Codec
    Format profile                           : [email protected]
    Format settings, CABAC                   : Yes
    Format settings, RefFrames               : 4 frames
    Codec ID                                 : V_MPEG4/ISO/AVC
    Duration                                 : 1 h 27 min
    Bit rate                                 : 10.8 Mb/s
    Width                                    : 1 920 pixels
    Height                                   : 1 080 pixels
    Display aspect ratio                     : 16:9
    Frame rate mode                          : Constant
    Frame rate                               : 23.976 (24000/1001) FPS
    Color space                              : YUV
    Chroma subsampling                       : 4:2:0
    Bit depth                                : 8 bits
    Scan type                                : Progressive
    Bits/(Pixel*Frame)                       : 0.218
    Stream size                              : 6.63 GiB (82%)
    Writing library                          : x264 core 148 r2708 86b7198
    Encoding settings                        : cabac=1 / ref=4 / deblock=1:0:0 / analyse=0x3:0x133 / me=esa / subme=10 / psy=1 / psy_rd=1.00:0.00 / mixed_ref=1 / me_range=24 / chroma_me=1 / trellis=2 / 8x8dct=1 / cqm=0 / deadzone=21,11 / fast_pskip=1 / chroma_qp_offset=-2 / threads=34 / lookahead_threads=5 / sliced_threads=0 / nr=0 / decimate=1 / interlaced=0 / bluray_compat=0 / constrained_intra=0 / bframes=8 / b_pyramid=2 / b_adapt=2 / b_bias=0 / direct=3 / weightb=1 / open_gop=0 / weightp=2 / keyint=240 / keyint_min=24 / scenecut=40 / intra_refresh=0 / rc_lookahead=60 / rc=crf / mbtree=1 / crf=20.0 / qcomp=0.60 / qpmin=0 / qpmax=69 / qpstep=4 / vbv_maxrate=62500 / vbv_bufsize=78125 / crf_max=0.0 / nal_hrd=none / filler=0 / ip_ratio=1.40 / aq=1:1.00
    Default                                  : Yes
    Forced                                   : No
    Color range                              : Limited
    Color primaries                          : BT.709
    Transfer characteristics                 : BT.709
    Matrix coefficients                      : BT.709
    Statistics Tags Issue                    : mkvmerge v10.0.0 ('To Drown In You') 64bit 2017-09-14 23:34:34 / mkvmerge v10.0.0 ('To Drown In You') 64bit 2017-09-14 23:34:34 / UTC 2017-09-14T19:32:52Z
    FromStats_BitRate                        : 11053753
    FromStats_Duration                       : 01:27:44.218000000
    FromStats_FrameCount                     : 126215
    FromStats_StreamSize                     : 7273671239

    Audio #1
    ID                                       : 2
    Format                                   : AC-3
    Format/Info                              : Audio Coding 3
    Format settings, Endianness              : Big
    Codec ID                                 : A_AC3
    Duration                                 : 1 h 27 min
    Bit rate mode                            : Constant
    Bit rate                                 : 640 kb/s
    Channel(s)                               : 6 channels
    Channel positions                        : Front: L C R, Side: L R, LFE
    Sampling rate                            : 48.0 kHz
    Frame rate                               : 31.250 FPS (1536 SPF)
    Bit depth                                : 16 bits
    Compression mode                         : Lossy
    Delay relative to video                  : 24 ms
    Stream size                              : 402 MiB (5%)
    Title                                    : Surround
    Language                                 : Spanish
    Service kind                             : Complete Main
    Default                                  : Yes
    Forced                                   : No
    Statistics Tags Issue                    : mkvmerge v10.0.0 ('To Drown In You') 64bit 2017-09-14 23:34:34 / mkvmerge v10.0.0 ('To Drown In You') 64bit 2017-09-14 23:34:34 / UTC 2017-09-14T19:32:52Z
    FromStats_BitRate                        : 640000
    FromStats_Duration                       : 01:27:44.256000000
    FromStats_FrameCount                     : 164508
    FromStats_StreamSize                     : 421140480

    Audio #2
    ID                                       : 3
    Format                                   : DTS
    Format/Info                              : Digital Theater Systems
    Mode                                     : 16
    Format settings, Endianness              : Big
    Codec ID                                 : A_DTS
    Duration                                 : 1 h 27 min
    Bit rate mode                            : Constant
    Bit rate                                 : 1 509 kb/s
    Channel(s)                               : 6 channels
    Channel positions                        : Front: L C R, Side: L R, LFE
    Sampling rate                            : 48.0 kHz
    Frame rate                               : 93.750 FPS (512 SPF)
    Bit depth                                : 16 bits
    Compression mode                         : Lossy
    Stream size                              : 947 MiB (11%)
    Title                                    : Surround
    Language                                 : English
    Default                                  : No
    Forced                                   : No
    Statistics Tags Issue                    : mkvmerge v10.0.0 ('To Drown In You') 64bit 2017-09-14 23:34:34 / mkvmerge v10.0.0 ('To Drown In You') 64bit 2017-09-14 23:34:34 / UTC 2017-09-14T19:32:52Z
    FromStats_BitRate                        : 1509000
    FromStats_Duration                       : 01:27:44.256000000
    FromStats_FrameCount                     : 493524
    FromStats_StreamSize                     : 992970288

    Text #1
    ID                                       : 4
    Format                                   : PGS
    Muxing mode                              : zlib
    Codec ID                                 : S_HDMV/PGS
    Codec ID/Info                            : Picture based subtitle format used on BDs/HD-DVDs
    Language                                 : Spanish
    Default                                  : No
    Forced                                   : No
    Statistics Tags Issue                    : mkvmerge v10.0.0 ('To Drown In You') 64bit 2017-09-14 23:34:34 / mkvmerge v10.0.0 ('To Drown In You') 64bit 2017-09-14 23:34:34 / UTC 2017-09-14T19:32:52Z
    FromStats_BitRate                        : 15411
    FromStats_Duration                       : 01:27:05.429000000
    FromStats_FrameCount                     : 2338
    FromStats_StreamSize                     : 10066250

    Text #2
    ID                                       : 5
    Format                                   : PGS
    Muxing mode                              : zlib
    Codec ID                                 : S_HDMV/PGS
    Codec ID/Info                            : Picture based subtitle format used on BDs/HD-DVDs
    Language                                 : English
    Default                                  : No
    Forced                                   : No
    Statistics Tags Issue                    : mkvmerge v10.0.0 ('To Drown In You') 64bit 2017-09-14 23:34:34 / mkvmerge v10.0.0 ('To Drown In You') 64bit 2017-09-14 23:34:34 / UTC 2017-09-14T19:32:52Z
    FromStats_BitRate                        : 16256
    FromStats_Duration                       : 01:27:05.429000000
    FromStats_FrameCount                     : 2670
    FromStats_StreamSize                     : 10618472

    Text #3
    ID                                       : 6
    Format                                   : UTF-8
    Codec ID                                 : S_TEXT/UTF8
    Codec ID/Info                            : UTF-8 Plain Text
    Language                                 : Spanish
    Default                                  : No
    Forced                                   : No
    Statistics Tags Issue                    : mkvmerge v10.0.0 ('To Drown In You') 64bit 2017-09-14 23:34:34 / mkvmerge v10.0.0 ('To Drown In You') 64bit 2017-09-14 23:34:34 / UTC 2017-09-14T19:32:52Z
    FromStats_BitRate                        : 61
    FromStats_Duration                       : 01:22:20.650000000
    FromStats_FrameCount                     : 1168
    FromStats_StreamSize                     : 37889

    Menu
    00:00:00.000                             : :Chapter 1
    00:06:52.787                             : :Chapter 2
    00:11:49.167                             : :Chapter 3
    00:15:55.830                             : :Chapter 4
    00:22:11.080                             : :Chapter 5
    00:28:16.278                             : :Chapter 6
    00:34:40.120                             : :Chapter 7
    00:38:02.030                             : :Chapter 8
    00:41:06.464                             : :Chapter 9
    00:51:04.478                             : :Chapter 10
    00:56:53.243                             : :Chapter 11
    01:02:22.280                             : :Chapter 12
    01:06:19.934                             : :Chapter 13
    01:13:16.100                             : :Chapter 14
    01:18:19.987                             : :Chapter 15
    01:22:40.873                             : :Chapter 16

  • Peso: 8,11 GB

Sinopsis

Descargar gratis Starship Troopers: Traitor of Mars (2017) Full 1080p Latino. Johnny Rico acaba de ser degradado y enviado a una pequeña estación satélite en Marte mientras la Federación ataca el planeta de los monstruos. Cuando está entrenando a nuevos reclutas en la pequeña estación, los monstruos atacan por sorpresa, pero la flota de la Federación está demasiado lejos para ayudarles. Rico y su tropa tendrán que salvar el planeta y descubrir cómo los monstruos pudieron llegar hasta ahí.

Ficha técnica

Imágenes, Capturas de la película

Video trailer de la película

Enlaces de descarga

Descargar Starship Troopers: Traitor of Mars (2017) Full 1080p Latino
Descargar

dpeliculas

Aportes de DPeliculasHDmega la pass es:dpeliculashdmega.org Aportes de CinemaniaHD la pass es:cinemaniahdd.com

PelícuDelas relacionadas

  • La momia (2017) 3D OU 1080p Latino

    2017
    La momia (2017) 3D OU 1080p Latino

    0.0 1h 50m 2017

    Descargar gratis La momia (2017) 3D OU 1080p Latino. A pesar de estar enterrada en una tumba en lo más...

    Director: Jo Beckett

    Género: 3D Half OU

    Actores: Vera Chok

  • Enredados otra vez (2017) WEBDL 1080p Latino

    2017
    Enredados otra vez (2017) WEBDL 1080p Latino

    5.0 0h 55m 2017

    Descargar Pelicula Tangled: Before Ever After Calidad WEBDL Latino¡Mientras Rapunzel se prepara para...

    Director: Tom Caulfield

    Género: Animación

    Actores: Zachary Levi

  • Shopkins Chef Club (2016) 1080p WEB-DL Latino

    2016
    Shopkins Chef Club (2016) 1080p WEB-DL Latino

    0.0 0h 0m 2016

    La vida nunca es ordinaria en Shopville, pero las cosas están a punto de obtener un poco extraordinario...

    Director: Raymond McGrath

    Género: Animación

    Actores: Marieve Herington

Comentarios 2
  • editor3100 - 15 septiembre, 2017

    Buenazas todas las peliculas y sagas…una pregunta…..las sagas de fast & furious y piratas del caribe no las subiran a googledrive??? (es que MEGa) ya no es tan bueno como antes 🙁

    • dpelis

      Administrador
      - 15 septiembre, 2017

      si usted un donador, hagame el favor de reportar en el paste que necesita enlaces google drive y se le agregaran en menos de 24 horas. saludos