Star Trek: Discovery (2017) Temporada 1 WEBDL 1080p Latino

6.667 vistas
1 estrella2 estrellas3 estrellas4 estrellas5 estrellas (6 votos, promedio: 4,50 de 5)
Cargando…

Información de Star Trek: Discovery (2017) Temporada 1 WEBDL 1080p Latino

Datos de la película

  • Calidad: WEBDL
  • Audio: Español Latino AC3 5.1 Netflix - Ingles AC3 5.1 Netflix
  • Subtitulos: Español Latino SRT - Ingles SRT
  • Resolución: 1920x960p
  • Formato: MKV
  • Codec: H.264
  • Encoder: Dpelis
  • Mediainfo: Ver Ver
  • Star Trek Discovery (2017) S01E01 WEBDL 1080p Latino.mkv
    Format                      : Matroska
    Format version              : Version 4 / Version 2
    File size                   : 1.12 GiB
    Duration                    : 39 min 13 s
    Overall bit rate            : 4 076 kb/s
    Movie name                  : DPeliculasHDMega.ORG
    Encoded date                : UTC 2017-09-25 15:42:07 / UTC 2017-09-25T14:47:04Z
    Writing application         : mkvmerge v10.0.0 ('To Drown In You') 64bit
    Writing library             : libebml v1.3.4 + libmatroska v1.4.5 / Lavf57.7.2

    Video
    ID                          : 1
    Format                      : AVC
    Format/Info                 : Advanced Video Codec
    Format profile              : [email protected]
    Format settings, CABAC      : Yes
    Format settings, RefFrames  : 4 frames
    Codec ID                    : V_MPEG4/ISO/AVC
    Duration                    : 39 min 13 s
    Bit rate                    : 3 500 kb/s
    Width                       : 1 920 pixels
    Height                      : 960 pixels
    Display aspect ratio        : 2.000
    Frame rate mode             : Constant
    Frame rate                  : 23.976 (24000/1001) FPS
    Color space                 : YUV
    Chroma subsampling          : 4:2:0
    Bit depth                   : 8 bits
    Scan type                   : Progressive
    Bits/(Pixel*Frame)          : 0.079
    Stream size                 : 959 MiB (84%)
    Writing library             : x264 core 148 r2708 86b7198
    Encoding settings           : cabac=1 / ref=3 / deblock=1:0:0 / analyse=0x3:0x113 / me=hex / subme=7 / psy=1 / psy_rd=1.00:0.00 / mixed_ref=1 / me_range=16 / chroma_me=1 / trellis=1 / 8x8dct=1 / cqm=0 / deadzone=21,11 / fast_pskip=1 / chroma_qp_offset=-2 / threads=30 / lookahead_threads=5 / sliced_threads=0 / nr=0 / decimate=1 / interlaced=0 / bluray_compat=0 / constrained_intra=0 / bframes=3 / b_pyramid=2 / b_adapt=1 / b_bias=0 / direct=1 / weightb=1 / open_gop=0 / weightp=2 / keyint=240 / keyint_min=24 / scenecut=40 / intra_refresh=0 / rc_lookahead=40 / rc=2pass / mbtree=1 / bitrate=3500 / ratetol=1.0 / qcomp=0.60 / qpmin=0 / qpmax=69 / qpstep=4 / cplxblur=20.0 / qblur=0.5 / vbv_maxrate=62500 / vbv_bufsize=78125 / nal_hrd=none / filler=0 / ip_ratio=1.40 / aq=1:1.00
    Default                     : Yes
    Forced                      : No
    Color range                 : Limited
    Color primaries             : BT.709
    Transfer characteristics    : BT.709
    Matrix coefficients         : BT.709
    Statistics Tags Issue       : mkvmerge v10.0.0 ('To Drown In You') 64bit 2017-09-25 15:42:07 / mkvmerge v10.0.0 ('To Drown In You') 64bit 2017-09-25 15:42:07 / UTC 2017-09-25T14:47:04Z
    FromStats_BitRate           : 3498695
    FromStats_Duration          : 00:39:12.851000000
    FromStats_FrameCount        : 56412
    FromStats_StreamSize        : 1028988687

    Audio #1
    ID                          : 2
    Format                      : E-AC-3
    Format/Info                 : Enhanced Audio Coding 3
    Format settings, Endianness : Big
    Codec ID                    : A_EAC3
    Duration                    : 39 min 13 s
    Bit rate mode               : Constant
    Bit rate                    : 192 kb/s
    Channel(s)                  : 6 channels
    Channel positions           : Front: L C R, Side: L R, LFE
    Sampling rate               : 48.0 kHz
    Frame rate                  : 187.500 FPS (256 SPF)
    Compression mode            : Lossy
    Stream size                 : 53.9 MiB (5%)
    Language                    : Spanish
    Service kind                : Complete Main
    Default                     : Yes
    Forced                      : No
    Statistics Tags Issue       : mkvmerge v10.0.0 ('To Drown In You') 64bit 2017-09-25 15:42:07 / mkvmerge v10.0.0 ('To Drown In You') 64bit 2017-09-25 15:42:07 / UTC 2017-09-25T14:47:04Z
    FromStats_BitRate           : 192000
    FromStats_Duration          : 00:39:13.184000000
    FromStats_FrameCount        : 73537
    FromStats_StreamSize        : 56476416

    Audio #2
    ID                          : 3
    Format                      : AC-3
    Format/Info                 : Audio Coding 3
    Format settings, Endianness : Big
    Codec ID                    : A_AC3
    Duration                    : 39 min 13 s
    Bit rate mode               : Constant
    Bit rate                    : 384 kb/s
    Channel(s)                  : 6 channels
    Channel positions           : Front: L C R, Side: L R, LFE
    Sampling rate               : 48.0 kHz
    Frame rate                  : 31.250 FPS (1536 SPF)
    Bit depth                   : 16 bits
    Compression mode            : Lossy
    Stream size                 : 108 MiB (9%)
    Title                       : Surround
    Language                    : English
    Service kind                : Complete Main
    Default                     : No
    Forced                      : No
    Statistics Tags Issue       : mkvmerge v10.0.0 ('To Drown In You') 64bit 2017-09-25 15:42:07 / mkvmerge v10.0.0 ('To Drown In You') 64bit 2017-09-25 15:42:07 / UTC 2017-09-25T14:47:04Z
    FromStats_BitRate           : 384000
    FromStats_Duration          : 00:39:13.184000000
    FromStats_FrameCount        : 73537
    FromStats_StreamSize        : 112952832

    Text #1
    ID                          : 4
    Format                      : ASS
    Codec ID                    : S_TEXT/ASS
    Codec ID/Info               : Advanced Sub Station Alpha
    Compression mode            : Lossless
    Language                    : Spanish
    Default                     : No
    Forced                      : No
    Statistics Tags Issue       : mkvmerge v10.0.0 ('To Drown In You') 64bit 2017-09-25 15:42:07 / mkvmerge v10.0.0 ('To Drown In You') 64bit 2017-09-25 15:42:07 / UTC 2017-09-25T14:47:04Z
    FromStats_BitRate           : 95
    FromStats_Duration          : 00:38:26.388000000
    FromStats_FrameCount        : 509
    FromStats_StreamSize        : 27435

    Text #2
    ID                          : 5
    Format                      : ASS
    Codec ID                    : S_TEXT/ASS
    Codec ID/Info               : Advanced Sub Station Alpha
    Compression mode            : Lossless
    Language                    : English
    Default                     : No
    Forced                      : No
    Statistics Tags Issue       : mkvmerge v10.0.0 ('To Drown In You') 64bit 2017-09-25 15:42:07 / mkvmerge v10.0.0 ('To Drown In You') 64bit 2017-09-25 15:42:07 / UTC 2017-09-25T14:47:04Z
    FromStats_BitRate           : 22
    FromStats_Duration          : 00:34:24.309000000
    FromStats_FrameCount        : 118
    FromStats_StreamSize        : 5878

  • Peso: 1.15 GB Aprox (4 Capitulo Disponible) Cada Lunes Nuevo Capitulo

Sinopsis

Ambientada una década antes de los acontecimientos sucedidos en la ficción original Star Trek, esta serie sigue a la nave espacial USS Discovery, dirigida por la comandante Rainsford. La tripulación continúa buscando nuevos mundos y civilizaciones a lo largo de todo el universo conocido. Sin embargo, su camino está lleno de preligros y la nave sufre un incidente inesperado que tiene graves consecuencias para todos sus pasajeros.

Está protagonizada por Sonequa Martin-Green (The Walking Dead) como la teniente comandante Rainsford, Doug Jones (El laberinto del fauno, Hellboy) como Saru, Anthony Rapp (Una mente maravillosa) es Stamets y Michelle Yeoh (Tigre y dragón) es la capitá Georgiou. Completan el reparto Shazad Latif (Penny Dreadful), Mary Chieffo (The Perfect Fit), Maulik Pancholy (Weeds) y Chris Obi (American Gods).

Bryan Fuller (Hannibal) y Alex Kurtzman (Transformers, Star Trek) son los creadores de esta serie de la franquicia Star Trek para la cadena CBS. Además, Kurtzman es el productor ejecutivo junto a Heather Kadin. En cuanto al guión, viene de la mano de Nicholas Meyer, director de películas como Star Trek II: La ira de Khan y Star Trek VI: Aquel país desconocido.

Ficha técnica

Imágenes, Capturas de la película

Video trailer de la película

Enlaces de descarga

Descargar Star Trek: Discovery (2017) Temporada 1 WEBDL 1080p Latino
Descargar

dpeliculas

Aportes de DPeliculasHDmega la pass es:dpeliculashdmega.org Aportes de CinemaniaHD la pass es:cinemaniahdd.com
Guardado en : Sci-Fi & Fantasy , Series

PelícuDelas relacionadas

Comentarios 21
  • Hazziel fernandez - 15 octubre, 2017

    Muchas gracias por subir los episodios de esta serie con audio latino. Gracias

  • isaias - 11 octubre, 2017

    pregunta?? el capitulo 4 tiene otra contraseña porque no me da ninguna de las 2….

  • Paul Phoenix - 09 octubre, 2017

    Buenas hoy subiran el cap 4?

    • dpelis

      Administrador
      - 09 octubre, 2017

      ahora se agrega

  • Gerardo Alfredo Encarnacion Ramírez - 03 octubre, 2017

    Muchas Gracias por su aporte de esta serie a la comunidad latina porque esta serie para mi es lo máximo y ya baje los 2 primeros episodios de lenguaje latino y conseguí el tercer episodio solo que la calidad visual es muy bajo y el lenguaje es en Español y no tengo nada de tonterías contra ellos sino que en sus doblajes mas le ponen atención a su pronunciación de sus léxicos que a los hechos científicos o lógicos por eso le presento mis agradecimientos INFINITOS

    • dpelis

      Administrador
      - 03 octubre, 2017

      ya fue agregado el cap3

  • Des7riker - 02 octubre, 2017

    que dias estaras subiendo los capitulos?

    • dpelis

      Administrador
      - 02 octubre, 2017

      manana agregare el otro cap.

      • GAB - 02 octubre, 2017

        ESPERO ANSIOSO QUE LLEGUE MAÑANA –
        ¡ NO TE MUERAS NUNCA !!!!!!!!!!!!!!!!!!!!!!!!!!!!!!!!!!!!!!!!!!!!!!!!!!!!!!!!!!!!!!!!!!!!!!!!!!!!!!!!

        • GAB - 02 octubre, 2017

          Perdon por el entusiasmo

  • slash - 25 septiembre, 2017

    Muchas gracias cine, ¿te traerás para acá las películas de Star Trek que tienes en cinemania?, y así completar la colección.

    • dpelis

      Administrador
      - 26 septiembre, 2017

      siya las tengo pero no me a qdado tiempo

  • Richard Bates - 25 septiembre, 2017

    Disculpen ya lo arreglé, cambié de reproductor y todo bien.

    Muchas gracias 🙂

  • Richard Bates - 25 septiembre, 2017

    Hola. Bajé el capítulo 01 y no estaba en latino 🙁

    Además el subtítulo tenía en cada línea una serie de códigos.
    Lo bajé de Google Drive.

    Saludos.

    • dpelis

      Administrador
      - 25 septiembre, 2017

      capitulo probado de nuevo y esta latino

  • Paul Phoenix - 25 septiembre, 2017

    Los subtitulos son necesarios cuando hablan klingon

  • Paul Phoenix - 25 septiembre, 2017

    Los capitulos estan al reves el 1 es el 2 y visceversa ademas los subtitulos estan tambien al reves

  • Dr Spok - 25 septiembre, 2017

    Las capturas se ven un poco ténues, como si la imagen no fuera HD. Y son dos capítulos solamente o entendí mal ??

    • dpelis

      Administrador
      - 25 septiembre, 2017

      son videos de netflix, y netflix solo filtrado 2 captiulos