Stake Land II (2016) 1080p Latino

1.745 vistas
1 estrella2 estrellas3 estrellas4 estrellas5 estrellas (2 votos, promedio: 2,50 de 5)
Cargando…

Información de Stake Land II (2016) 1080p Latino

stake land 2 1080p latino

Datos de la película

  • Calidad: 1080p
  • Audio: Español Latino AC3 2.0 DVD - Ingles AC3 5.1 BLURAY
  • Subtitulos: Español Latino SRT - Ingles SRT
  • Resolución: 1920x804p
  • Formato: MKV
  • Codec: H.264
  • Encoder: Dpelis
  • Mediainfo: Ver Ver
  • Stake Land 2 2016 1080p Latino-Dpelis.mkv
    Format                      : Matroska
    Format version              : Version 4 / Version 2
    File size                   : 2.53 GiB
    Duration                    : 1 h 25 min
    Overall bit rate            : 4 244 kb/s
    Movie name                  : DPeliculasHDMega.ORG
    Encoded date                : UTC 2017-05-07 19:38:34 / UTC 2017-05-07T17:31:26Z
    Writing application         : mkvmerge v10.0.0 ('To Drown In You') 64bit
    Writing library             : libebml v1.3.4 + libmatroska v1.4.5 / Lavf57.7.2

    Video
    ID                          : 1
    Format                      : AVC
    Format/Info                 : Advanced Video Codec
    Format profile              : High@L4.1
    Format settings, CABAC      : Yes
    Format settings, ReFrames   : 4 frames
    Codec ID                    : V_MPEG4/ISO/AVC
    Duration                    : 1 h 25 min
    Bit rate                    : 3 500 kb/s
    Width                       : 1 920 pixels
    Height                      : 804 pixels
    Display aspect ratio        : 2.40:1
    Frame rate mode             : Constant
    Frame rate                  : 23.976 (24000/1001) FPS
    Color space                 : YUV
    Chroma subsampling          : 4:2:0
    Bit depth                   : 8 bits
    Scan type                   : Progressive
    Bits/(Pixel*Frame)          : 0.095
    Stream size                 : 2.02 GiB (80%)
    Writing library             : x264 core 148 r2708 86b7198
    Encoding settings           : cabac=1 / ref=3 / deblock=1:0:0 / analyse=0x3:0x113 / me=hex / subme=7 / psy=1 / psy_rd=1.00:0.00 / mixed_ref=1 / me_range=16 / chroma_me=1 / trellis=1 / 8x8dct=1 / cqm=0 / deadzone=21,11 / fast_pskip=1 / chroma_qp_offset=-2 / threads=12 / lookahead_threads=2 / sliced_threads=0 / nr=0 / decimate=1 / interlaced=0 / bluray_compat=0 / constrained_intra=0 / bframes=3 / b_pyramid=2 / b_adapt=1 / b_bias=0 / direct=1 / weightb=1 / open_gop=0 / weightp=2 / keyint=240 / keyint_min=24 / scenecut=40 / intra_refresh=0 / rc_lookahead=40 / rc=abr / mbtree=1 / bitrate=3500 / ratetol=1.0 / qcomp=0.60 / qpmin=0 / qpmax=69 / qpstep=4 / vbv_maxrate=62500 / vbv_bufsize=78125 / nal_hrd=none / filler=0 / ip_ratio=1.40 / aq=1:1.00
    Default                     : Yes
    Forced                      : No
    Color range                 : Limited
    Color primaries             : BT.709
    Transfer characteristics    : BT.709
    Matrix coefficients         : BT.709
    Statistics Tags Issue       : mkvmerge v10.0.0 ('To Drown In You') 64bit 2017-05-07 19:38:34 / mkvmerge v10.0.0 ('To Drown In You') 64bit 2017-05-07 19:38:34 / UTC 2017-05-07T17:31:26Z
    FromStats_BitRate           : 3477860
    FromStats_Duration          : 01:25:12.399000000
    FromStats_FrameCount        : 122575
    FromStats_StreamSize        : 2222526345

    Audio #1
    ID                          : 2
    Format                      : AC-3
    Format/Info                 : Audio Coding 3
    Mode                        : Dolby Digital
    Format settings, Endianness : Big
    Codec ID                    : A_AC3
    Duration                    : 1 h 25 min
    Bit rate mode               : Constant
    Bit rate                    : 384 kb/s
    Channel(s)                  : 2 channels
    Channel positions           : Front: L R
    Sampling rate               : 48.0 kHz
    Frame rate                  : 31.250 FPS (1536 spf)
    Bit depth                   : 16 bits
    Compression mode            : Lossy
    Delay relative to video     : -5 ms
    Stream size                 : 234 MiB (9%)
    Title                       : Stereo
    Language                    : Spanish
    Service kind                : Complete Main
    Default                     : Yes
    Forced                      : No
    Statistics Tags Issue       : mkvmerge v10.0.0 ('To Drown In You') 64bit 2017-05-07 19:38:34 / mkvmerge v10.0.0 ('To Drown In You') 64bit 2017-05-07 19:38:34 / UTC 2017-05-07T17:31:26Z
    FromStats_BitRate           : 384000
    FromStats_Duration          : 01:25:17.600000000
    FromStats_FrameCount        : 159925
    FromStats_StreamSize        : 245644800

    Audio #2
    ID                          : 3
    Format                      : AC-3
    Format/Info                 : Audio Coding 3
    Format settings, Endianness : Big
    Codec ID                    : A_AC3
    Duration                    : 1 h 25 min
    Bit rate mode               : Constant
    Bit rate                    : 384 kb/s
    Channel(s)                  : 6 channels
    Channel positions           : Front: L C R, Side: L R, LFE
    Sampling rate               : 48.0 kHz
    Frame rate                  : 31.250 FPS (1536 spf)
    Bit depth                   : 16 bits
    Compression mode            : Lossy
    Delay relative to video     : -5 ms
    Stream size                 : 234 MiB (9%)
    Title                       : Surround
    Language                    : English
    Service kind                : Complete Main
    Default                     : No
    Forced                      : No
    Statistics Tags Issue       : mkvmerge v10.0.0 ('To Drown In You') 64bit 2017-05-07 19:38:34 / mkvmerge v10.0.0 ('To Drown In You') 64bit 2017-05-07 19:38:34 / UTC 2017-05-07T17:31:26Z
    FromStats_BitRate           : 384000
    FromStats_Duration          : 01:25:12.384000000
    FromStats_FrameCount        : 159762
    FromStats_StreamSize        : 245394432

    Text #1
    ID                          : 4
    Format                      : UTF-8
    Codec ID                    : S_TEXT/UTF8
    Codec ID/Info               : UTF-8 Plain Text
    Default                     : Yes
    Forced                      : No
    Statistics Tags Issue       : mkvmerge v10.0.0 ('To Drown In You') 64bit 2017-05-07 19:38:34 / mkvmerge v10.0.0 ('To Drown In You') 64bit 2017-05-07 19:38:34 / UTC 2017-05-07T17:31:26Z
    FromStats_BitRate           : 32
    FromStats_Duration          : 01:21:17.003000000
    FromStats_FrameCount        : 697
    FromStats_StreamSize        : 19642

    Text #2
    ID                          : 5
    Format                      : UTF-8
    Codec ID                    : S_TEXT/UTF8
    Codec ID/Info               : UTF-8 Plain Text
    Default                     : No
    Forced                      : No
    Statistics Tags Issue       : mkvmerge v10.0.0 ('To Drown In You') 64bit 2017-05-07 19:38:34 / mkvmerge v10.0.0 ('To Drown In You') 64bit 2017-05-07 19:38:34 / UTC 2017-05-07T17:31:26Z
    FromStats_BitRate           : 31
    FromStats_Duration          : 01:18:43.698000000
    FromStats_FrameCount        : 609
    FromStats_StreamSize        : 18447

    Menu
    00:00:00.000                : :Chapter 1
    00:05:20.278                : :Chapter 2
    00:10:00.517                : :Chapter 3
    00:13:48.328                : :Chapter 4
    00:17:50.236                : :Chapter 5
    00:20:54.962                : :Chapter 6
    00:26:10.694                : :Chapter 7
    00:31:43.944                : :Chapter 8
    00:36:10.710                : :Chapter 9
    00:41:21.062                : :Chapter 10
    00:45:29.810                : :Chapter 11
    00:50:26.440                : :Chapter 12
    00:54:57.628                : :Chapter 13
    00:59:57.094                : :Chapter 14
    01:03:18.920                : :Chapter 15
    01:07:30.588                : :Chapter 16
    01:11:28.618                : :Chapter 17
    01:15:03.749                : :Chapter 18
    01:20:21.900                : :Chapter 19
    01:25:10.772                : :Chapter 20

  • Peso: 2.53 GB

Sinopsis

Descargar  Stake Land 2 2016 1080p Latino,Cuando la casa Nuevo Edén es destruida por una Hermandad revitalizado y su nuevo líder Vamp, Martin está solo en las tierras baldías de América con sólo el recuerdo lejano de su mentor y el legendario cazador de vampiros, Señor, para guiarlo.

Caminando por las tierras del desierto en declive, Martin va en busca del hombre que puede ayudarle a conseguir venganza. Una vez montado, y el Sr. Martin se prepara para luchar contra una regla ahora voraz y monstruoso de la hermandad

Ficha técnica

Imágenes, Capturas de la película

Video trailer de la película

https://youtu.be/RS99EzOY9jw

Enlaces de descarga

Descargar Stake Land II (2016) 1080p Latino
Descargar

dpeliculas

Aportes de DPeliculasHDmega la pass es:dpeliculashdmega.org Aportes de CinemaniaHD la pass es:cinemaniahdd.com
Guardado en : Acción , Terror

PelícuDelas relacionadas

  • El Dragon rojo (2002) Full 1080p Latino

    2002
    El Dragon rojo (2002) Full 1080p Latino

    0.0 2h 4m 2002

    El agente del FBI Will Graham conoce bastante bien a Hannibal Lecter. Tras trabajar con él durante la...

    Director: Brett Ratner

    Género: Crimen

    Actores: Tyler Patrick Jones

  • Hannibal (2001) Full 1080p Latino

    2001
    Hannibal (2001) Full 1080p Latino

    0.0 2h 11m 2001

    Han pasado diez años desde que el doctor Hannibal, después de su entrevista con la agente del FBI Clarice...

    Director: Ridley Scott

    Género: Crimen

    Actores: Zeljko Ivanek

  • El extraño (2016) 1080p Latino

    2016
    El extraño (2016) 1080p Latino

    4.0 2h 36m 2016

    La vida de un pueblo coreano es trastornada por una serie de asesinatos, salvajes y misteriosos, que...

    Director: Na Hong-jin

    Género: Misterio

    Actores: Sung-yeon Park

  • Security (2017) Full 1080p Latino

    2017
    Security (2017) Full 1080p Latino

    2.0 1h 27m 2017

    Descargar Security 1080p Latino, Una pelicula de accion, de vietnam Un exsoldado que trabaja como guardia...

    Director: Monika Hristova

    Género: Acción

    Actores: Yana Marinova

  • killing salazar (2016) 1080p Sub Latino

    2016
    killing salazar (2016) 1080p Sub Latino

    0.0 1h 30m 2016

    Descargar gratis killing salazar (2016) 1080p Sub Latino. Un equipo de élite de agentes de la DEA estan...

    Director: Keoni Waxman

    Género: Acción

    Actores: Steven Seagal

Comentarios 2
  • Antony - 08 mayo, 2017

    Subiran la primera pelicula?

    • dpelis

      Administrador
      - 08 mayo, 2017

      por el momento no sabemos.