Advertise here

Spider-Man 3 (2007) Full 1080p Latino

833 vistas
1 estrella2 estrellas3 estrellas4 estrellas5 estrellas (4 votos, promedio: 3,75 de 5)
Cargando…

Información de Spider-Man 3 (2007) Full 1080p Latino

Datos de la película

  • Calidad: Full 1080p
  • Audio: Español Latino AC3 5.1 BLURAY - Ingles DTS 5.1 BLURAY
  • Subtitulos: Español Latino PGS
  • Resolución: 1920X1080
  • Formato: MKV
  • Codec: H.264
  • Encoder: Dpelis
  • Mediainfo: Clic para Mostrar Datos Ver
  • Format                                   : Matroska
    Format version                           : Version 4 / Version 2
    File size                                : 9.80 GiB
    Duration                                 : 2 h 19 min
    Overall bit rate                         : 10.1 Mb/s
    Movie name                               : dpeliculashdmega.org
    Encoded date                             : UTC 2017-11-02 04:45:07 / UTC 2017-09-10T09:44:28Z
    Writing application                      : mkvmerge v15.0.0 ('Duel with the Devil') 64-bit
    Writing library                          : libebml v1.3.5 + libmatroska v1.4.5 / Lavf57.7.2

    Video
    ID                                       : 1
    Format                                   : AVC
    Format/Info                              : Advanced Video Codec
    Format profile                           : [email protected]
    Format settings                          : CABAC / 4 Ref Frames
    Format settings, CABAC                   : Yes
    Format settings, RefFrames               : 4 frames
    Codec ID                                 : V_MPEG4/ISO/AVC
    Duration                                 : 2 h 19 min
    Bit rate                                 : 7 731 kb/s
    Width                                    : 1 920 pixels
    Height                                   : 1 080 pixels
    Display aspect ratio                     : 16:9
    Frame rate mode                          : Constant
    Frame rate                               : 23.976 (24000/1001) FPS
    Color space                              : YUV
    Chroma subsampling                       : 4:2:0
    Bit depth                                : 8 bits
    Scan type                                : Progressive
    Bits/(Pixel*Frame)                       : 0.156
    Stream size                              : 7.52 GiB (77%)
    Title                                    : Spider-Man 3 (2007) Full 1080p Latino
    Writing library                          : x264 core 148 r2708 86b7198
    Encoding settings                        : cabac=1 / ref=4 / deblock=1:0:0 / analyse=0x3:0x133 / me=esa / subme=10 / psy=1 / psy_rd=1.00:0.00 / mixed_ref=1 / me_range=24 / chroma_me=1 / trellis=2 / 8x8dct=1 / cqm=0 / deadzone=21,11 / fast_pskip=1 / chroma_qp_offset=-2 / threads=34 / lookahead_threads=5 / sliced_threads=0 / nr=0 / decimate=1 / interlaced=0 / bluray_compat=0 / constrained_intra=0 / bframes=8 / b_pyramid=2 / b_adapt=2 / b_bias=0 / direct=3 / weightb=1 / open_gop=0 / weightp=2 / keyint=240 / keyint_min=24 / scenecut=40 / intra_refresh=0 / rc_lookahead=60 / rc=crf / mbtree=1 / crf=20.0 / qcomp=0.60 / qpmin=0 / qpmax=69 / qpstep=4 / vbv_maxrate=62500 / vbv_bufsize=78125 / crf_max=0.0 / nal_hrd=none / filler=0 / ip_ratio=1.40 / aq=1:1.00
    Language                                 : English
    Default                                  : Yes
    Forced                                   : No
    Color range                              : Limited
    Color primaries                          : BT.709
    Transfer characteristics                 : BT.709
    Matrix coefficients                      : BT.709
    Statistics Tags Issue                    : mkvmerge v15.0.0 ('Duel with the Devil') 64-bit 2017-11-02 04:45:07 / mkvmerge v15.0.0 ('Duel with the Devil') 64-bit 2017-11-02 04:45:07 / UTC 2017-09-10T09:44:28Z
    FromStats_BitRate                        : 7913761
    FromStats_Duration                       : 02:19:11.260000000
    FromStats_FrameCount                     : 200230
    FromStats_StreamSize                     : 8261235294

    Audio #1
    ID                                       : 2
    Format                                   : AC-3
    Format/Info                              : Audio Coding 3
    Format settings, Endianness              : Big
    Codec ID                                 : A_AC3
    Duration                                 : 2 h 19 min
    Bit rate mode                            : Constant
    Bit rate                                 : 640 kb/s
    Channel(s)                               : 6 channels
    Channel positions                        : Front: L C R, Side: L R, LFE
    Sampling rate                            : 48.0 kHz
    Frame rate                               : 31.250 FPS (1536 SPF)
    Bit depth                                : 16 bits
    Compression mode                         : Lossy
    Stream size                              : 637 MiB (6%)
    Title                                    : Latino-AC3
    Language                                 : Spanish
    Service kind                             : Complete Main
    Default                                  : Yes
    Forced                                   : No
    Statistics Tags Issue                    : mkvmerge v15.0.0 ('Duel with the Devil') 64-bit 2017-11-02 04:45:07 / mkvmerge v15.0.0 ('Duel with the Devil') 64-bit 2017-11-02 04:45:07 / UTC 2017-09-10T09:44:28Z
    FromStats_BitRate                        : 640000
    FromStats_Duration                       : 02:19:11.328000000
    FromStats_FrameCount                     : 260979
    FromStats_StreamSize                     : 668106240

    Audio #2
    ID                                       : 3
    Format                                   : DTS
    Format/Info                              : Digital Theater Systems
    Mode                                     : 16
    Format settings, Endianness              : Big
    Codec ID                                 : A_DTS
    Duration                                 : 2 h 19 min
    Bit rate mode                            : Constant
    Bit rate                                 : 1 509 kb/s
    Channel(s)                               : 6 channels
    Channel positions                        : Front: L C R, Side: L R, LFE
    Sampling rate                            : 48.0 kHz
    Frame rate                               : 93.750 FPS (512 SPF)
    Bit depth                                : 16 bits
    Compression mode                         : Lossy
    Stream size                              : 1.47 GiB (15%)
    Title                                    : Ingles-DTS
    Language                                 : English
    Default                                  : No
    Forced                                   : No
    Statistics Tags Issue                    : mkvmerge v15.0.0 ('Duel with the Devil') 64-bit 2017-11-02 04:45:07 / mkvmerge v15.0.0 ('Duel with the Devil') 64-bit 2017-11-02 04:45:07 / UTC 2017-09-10T09:44:28Z
    FromStats_BitRate                        : 1509000
    FromStats_Duration                       : 02:19:11.296000000
    FromStats_FrameCount                     : 782934
    FromStats_StreamSize                     : 1575263208

    Text #1
    ID                                       : 4
    Format                                   : UTF-8
    Codec ID                                 : S_TEXT/UTF8
    Codec ID/Info                            : UTF-8 Plain Text
    Title                                    : SRT
    Language                                 : Spanish
    Default                                  : No
    Forced                                   : No
    Statistics Tags Issue                    : mkvmerge v15.0.0 ('Duel with the Devil') 64-bit 2017-11-02 04:45:07 / mkvmerge v15.0.0 ('Duel with the Devil') 64-bit 2017-11-02 04:45:07 / UTC 2017-09-10T09:44:28Z
    FromStats_BitRate                        : 34
    FromStats_Duration                       : 02:11:00.398000000
    FromStats_FrameCount                     : 1132
    FromStats_StreamSize                     : 34079

    Text #2
    ID                                       : 5
    Format                                   : PGS
    Muxing mode                              : zlib
    Codec ID                                 : S_HDMV/PGS
    Codec ID/Info                            : Picture based subtitle format used on BDs/HD-DVDs
    Title                                    : PGS
    Language                                 : Spanish
    Default                                  : No
    Forced                                   : No
    Statistics Tags Issue                    : mkvmerge v15.0.0 ('Duel with the Devil') 64-bit 2017-11-02 04:45:07 / mkvmerge v15.0.0 ('Duel with the Devil') 64-bit 2017-11-02 04:45:07 / UTC 2017-09-10T09:44:28Z
    FromStats_BitRate                        : 19467
    FromStats_Duration                       : 02:11:00.311000000
    FromStats_FrameCount                     : 2264
    FromStats_StreamSize                     : 19127786

    Text #3
    ID                                       : 6
    Format                                   : PGS
    Muxing mode                              : zlib
    Codec ID                                 : S_HDMV/PGS
    Codec ID/Info                            : Picture based subtitle format used on BDs/HD-DVDs
    Title                                    : PGS
    Language                                 : English
    Default                                  : No
    Forced                                   : No
    Statistics Tags Issue                    : mkvmerge v15.0.0 ('Duel with the Devil') 64-bit 2017-11-02 04:45:07 / mkvmerge v15.0.0 ('Duel with the Devil') 64-bit 2017-11-02 04:45:07 / UTC 2017-09-10T09:44:28Z
    FromStats_BitRate                        : 17203
    FromStats_Duration                       : 02:17:27.948000000
    FromStats_FrameCount                     : 2932
    FromStats_StreamSize                     : 17736370

    Menu
    00:00:00.000                             : :Chapter 1
    00:07:59.771                             : :Chapter 2
    00:16:55.014                             : :Chapter 3
    00:24:44.942                             : :Chapter 4
    00:30:11.977                             : :Chapter 5
    00:40:08.489                             : :Chapter 6
    00:49:24.545                             : :Chapter 7
    00:59:27.481                             : :Chapter 8
    01:06:34.532                             : :Chapter 9
    01:15:23.394                             : :Chapter 10
    01:22:16.682                             : :Chapter 11
    01:30:17.579                             : :Chapter 12
    01:40:46.332                             : :Chapter 13
    01:49:10.669                             : :Chapter 14
    01:59:57.107                             : :Chapter 15
    02:06:11.314                             : :Chapter 16

  • Peso: 9.80 GiB

Sinopsis

Tercera entrega de las aventuras del joven Peter Parker (Maguire). Parece que Parker ha conseguido por fin el equilibrio entre su devoción por Mary Jane y sus deberes como superhéroe. Pero, de repente, su traje cambia volviéndose negro y aumentando sus poderes; también Peter se transforma, sacando el lado más oscuro y vengativo de su personalidad. Bajo la influencia de este nuevo traje, Peter deja de proteger a la gente que realmente lo quiere y se preocupa por él. En estas circunstancias, no tiene más remedio que elegir entre disfrutar del tentador poder del nuevo traje o seguir siendo el compasivo héroe de antes. Mientras tanto, dos temibles enemigos, Venom y el Hombre de Arena, utilizarán sus poderes para calmar su sed de venganza.

 

Nota: Rip de remasterizacion 4K 

Ficha técnica

Video trailer de la película

Enlaces de descarga

Descargar Spider-Man 3 (2007) Full 1080p Latino
Descargar

dpeliculas

Aportes de DPeliculasHDmega la pass es:dpeliculashdmega.org Aportes de CinemaniaHD la pass es:cinemaniahdd.com

Películas relacionadas

  • Toy Story 3 (2010) Full 1080p Latino

    2010
    Toy Story 3 (2010) Full 1080p Latino

    0.0 1 h 43 min 2010

    Sabiendo que su dueño Andy, que ya no es un niño, se prepara para ir a la universidad, el vaquero Woody,...

    Director: Mark Sanford

    Género: Animación

    Actores: Whoopi Goldberg

  • Toy Story (1995) Full 1080p Latino

    1995
    Toy Story (1995) Full 1080p Latino

    0.0 1 h 21 min 1995

    Los juguetes de Andy, un niño de 6 años, temen que haya llegado su hora y que un nuevo regalo de cumpleaños...

    Director: Roman Figun

    Género: Animación

    Actores: Wallace Shawn

  • Avatar (2009) EXTENDED Full 1080p Latino

    2009
    Avatar (2009) EXTENDED Full 1080p Latino

    0.0 2 h 58 min 2009

    Jake Sully, un ex-marine confinado a una silla de ruedas, es reclutado para viajar al planeta Pandora,...

    Director: James Cameron

    Género: Acción

    Actores: Zoe Saldana

Comentarios 0