Advertise here

Spider-Man (2002) Full 1080p Latino

761 vistas
1 estrella2 estrellas3 estrellas4 estrellas5 estrellas (2 votos, promedio: 5,00 de 5)
Cargando…

Información de Spider-Man (2002) Full 1080p Latino

Datos de la película

  • Calidad: Full 1080p
  • Audio: Español Latino AC3 5.1 BLURAY - Ingles AC3 5.1 BLURAY
  • Subtitulos: Español Latino PGS
  • Resolución: 1920X1080
  • Formato: MKV
  • Codec: H.264
  • Encoder: Dpelis
  • Mediainfo: Clic para Mostrar Datos Ver
  • Format                                   : Matroska
    Format version                           : Version 4 / Version 2
    File size                                : 11.2 GiB
    Duration                                 : 2 h 1 min
    Overall bit rate                         : 13.3 Mb/s
    Movie name                               : dpeliculashdmega.org
    Encoded date                             : UTC 2017-11-02 03:08:51 / UTC 2017-10-19T09:32:59Z
    Writing application                      : mkvmerge v15.0.0 ('Duel with the Devil') 64-bit
    Writing library                          : libebml v1.3.5 + libmatroska v1.4.5 / Lavf57.7.2

    Video
    ID                                       : 1
    Format                                   : AVC
    Format/Info                              : Advanced Video Codec
    Format profile                           : [email protected]
    Format settings                          : CABAC / 4 Ref Frames
    Format settings, CABAC                   : Yes
    Format settings, RefFrames               : 4 frames
    Codec ID                                 : V_MPEG4/ISO/AVC
    Duration                                 : 2 h 1 min
    Bit rate                                 : 11.7 Mb/s
    Width                                    : 1 920 pixels
    Height                                   : 1 080 pixels
    Display aspect ratio                     : 16:9
    Frame rate mode                          : Constant
    Frame rate                               : 23.976 (24000/1001) FPS
    Color space                              : YUV
    Chroma subsampling                       : 4:2:0
    Bit depth                                : 8 bits
    Scan type                                : Progressive
    Bits/(Pixel*Frame)                       : 0.236
    Stream size                              : 9.93 GiB (88%)
    Title                                    : Spider-Man (2002) Full 1080p Latino
    Writing library                          : x264 core 148 r2708 86b7198
    Encoding settings                        : cabac=1 / ref=4 / deblock=1:0:0 / analyse=0x3:0x133 / me=esa / subme=10 / psy=1 / psy_rd=1.00:0.00 / mixed_ref=1 / me_range=24 / chroma_me=1 / trellis=2 / 8x8dct=1 / cqm=0 / deadzone=21,11 / fast_pskip=1 / chroma_qp_offset=-2 / threads=34 / lookahead_threads=5 / sliced_threads=0 / nr=0 / decimate=1 / interlaced=0 / bluray_compat=0 / constrained_intra=0 / bframes=8 / b_pyramid=2 / b_adapt=2 / b_bias=0 / direct=3 / weightb=1 / open_gop=0 / weightp=2 / keyint=240 / keyint_min=24 / scenecut=40 / intra_refresh=0 / rc_lookahead=60 / rc=crf / mbtree=1 / crf=20.0 / qcomp=0.60 / qpmin=0 / qpmax=69 / qpstep=4 / vbv_maxrate=62500 / vbv_bufsize=78125 / crf_max=0.0 / nal_hrd=none / filler=0 / ip_ratio=1.40 / aq=1:1.00
    Language                                 : English
    Default                                  : Yes
    Forced                                   : No
    Color range                              : Limited
    Color primaries                          : BT.709
    Transfer characteristics                 : BT.709
    Matrix coefficients                      : BT.709
    Statistics Tags Issue                    : mkvmerge v15.0.0 ('Duel with the Devil') 64-bit 2017-11-02 03:08:51 / mkvmerge v15.0.0 ('Duel with the Devil') 64-bit 2017-11-02 03:08:51 / UTC 2017-10-19T09:32:59Z
    FromStats_BitRate                        : 11962017
    FromStats_Duration                       : 02:01:12.265000000
    FromStats_FrameCount                     : 174360
    FromStats_StreamSize                     : 10873870185

    Audio #1
    ID                                       : 2
    Format                                   : AC-3
    Format/Info                              : Audio Coding 3
    Format settings, Endianness              : Big
    Codec ID                                 : A_AC3
    Duration                                 : 2 h 1 min
    Bit rate mode                            : Constant
    Bit rate                                 : 640 kb/s
    Channel(s)                               : 6 channels
    Channel positions                        : Front: L C R, Side: L R, LFE
    Sampling rate                            : 48.0 kHz
    Frame rate                               : 31.250 FPS (1536 SPF)
    Bit depth                                : 16 bits
    Compression mode                         : Lossy
    Stream size                              : 555 MiB (5%)
    Title                                    : Latino-AC3
    Language                                 : Spanish
    Service kind                             : Complete Main
    Default                                  : Yes
    Forced                                   : No
    Statistics Tags Issue                    : mkvmerge v15.0.0 ('Duel with the Devil') 64-bit 2017-11-02 03:08:51 / mkvmerge v15.0.0 ('Duel with the Devil') 64-bit 2017-11-02 03:08:51 / UTC 2017-10-19T09:32:59Z
    FromStats_BitRate                        : 640000
    FromStats_Duration                       : 02:01:12.288000000
    FromStats_FrameCount                     : 227259
    FromStats_StreamSize                     : 581783040

    Audio #2
    ID                                       : 3
    Format                                   : AC-3
    Format/Info                              : Audio Coding 3
    Format settings, Endianness              : Big
    Codec ID                                 : A_AC3
    Duration                                 : 2 h 1 min
    Bit rate mode                            : Constant
    Bit rate                                 : 640 kb/s
    Channel(s)                               : 6 channels
    Channel positions                        : Front: L C R, Side: L R, LFE
    Sampling rate                            : 48.0 kHz
    Frame rate                               : 31.250 FPS (1536 SPF)
    Bit depth                                : 16 bits
    Compression mode                         : Lossy
    Stream size                              : 555 MiB (5%)
    Title                                    : Ingles-AC3
    Language                                 : English
    Service kind                             : Complete Main
    Default                                  : No
    Forced                                   : No
    Statistics Tags Issue                    : mkvmerge v15.0.0 ('Duel with the Devil') 64-bit 2017-11-02 03:08:51 / mkvmerge v15.0.0 ('Duel with the Devil') 64-bit 2017-11-02 03:08:51 / UTC 2017-10-19T09:32:59Z
    FromStats_BitRate                        : 640000
    FromStats_Duration                       : 02:01:12.288000000
    FromStats_FrameCount                     : 227259
    FromStats_StreamSize                     : 581783040

    Text #1
    ID                                       : 4
    Format                                   : UTF-8
    Codec ID                                 : S_TEXT/UTF8
    Codec ID/Info                            : UTF-8 Plain Text
    Title                                    : SRT
    Language                                 : Spanish
    Default                                  : No
    Forced                                   : No
    Statistics Tags Issue                    : mkvmerge v15.0.0 ('Duel with the Devil') 64-bit 2017-11-02 03:08:51 / mkvmerge v15.0.0 ('Duel with the Devil') 64-bit 2017-11-02 03:08:51 / UTC 2017-10-19T09:32:59Z
    FromStats_BitRate                        : 48
    FromStats_Duration                       : 01:54:28.892000000
    FromStats_FrameCount                     : 1184
    FromStats_StreamSize                     : 42031

    Text #2
    ID                                       : 5
    Format                                   : PGS
    Muxing mode                              : zlib
    Codec ID                                 : S_HDMV/PGS
    Codec ID/Info                            : Picture based subtitle format used on BDs/HD-DVDs
    Title                                    : PGS
    Language                                 : Spanish
    Default                                  : No
    Forced                                   : No
    Statistics Tags Issue                    : mkvmerge v15.0.0 ('Duel with the Devil') 64-bit 2017-11-02 03:08:51 / mkvmerge v15.0.0 ('Duel with the Devil') 64-bit 2017-11-02 03:08:51 / UTC 2017-10-19T09:32:59Z
    FromStats_BitRate                        : 26457
    FromStats_Duration                       : 02:00:17.335000000
    FromStats_FrameCount                     : 2392
    FromStats_StreamSize                     : 23868871

    Text #3
    ID                                       : 6
    Format                                   : PGS
    Muxing mode                              : zlib
    Codec ID                                 : S_HDMV/PGS
    Codec ID/Info                            : Picture based subtitle format used on BDs/HD-DVDs
    Title                                    : PGS
    Language                                 : English
    Default                                  : No
    Forced                                   : No
    Statistics Tags Issue                    : mkvmerge v15.0.0 ('Duel with the Devil') 64-bit 2017-11-02 03:08:51 / mkvmerge v15.0.0 ('Duel with the Devil') 64-bit 2017-11-02 03:08:51 / UTC 2017-10-19T09:32:59Z
    FromStats_BitRate                        : 28042
    FromStats_Duration                       : 01:52:12.726000000
    FromStats_FrameCount                     : 2403
    FromStats_StreamSize                     : 23599928

    Menu
    00:00:00.000                             : :Chapter 1
    00:06:29.472                             : :Chapter 2
    00:09:22.937                             : :Chapter 3
    00:14:56.187                             : :Chapter 4
    00:17:50.695                             : :Chapter 5
    00:21:53.604                             : :Chapter 6
    00:23:28.616                             : :Chapter 7
    00:25:18.767                             : :Chapter 8
    00:34:35.115                             : :Chapter 9
    00:40:22.170                             : :Chapter 10
    00:41:44.127                             : :Chapter 11
    00:43:13.883                             : :Chapter 12
    00:44:40.011                             : :Chapter 13
    00:54:32.978                             : :Chapter 14
    00:55:52.558                             : :Chapter 15
    01:00:48.937                             : :Chapter 16
    01:04:20.774                             : :Chapter 17
    01:05:57.036                             : :Chapter 18
    01:12:12.370                             : :Chapter 19
    01:14:18.871                             : :Chapter 20
    01:15:48.711                             : :Chapter 21
    01:19:35.521                             : :Chapter 22
    01:22:06.463                             : :Chapter 23
    01:25:13.609                             : :Chapter 24
    01:30:39.225                             : :Chapter 25
    01:39:36.721                             : :Chapter 26
    01:45:08.385                             : :Chapter 27
    01:50:27.830                             : :Chapter 28

  • Peso: 11.2 GiB

Sinopsis

Peter Parker es un joven y tímido estudiante que vive con su tía May y su tío Ben desde la muerte de sus padres, siendo él muy pequeño. Peter está enamorado de su guapa vecina, pero su escaso carisma no le hace ser precisamente muy popular en el instituto. Un día es mordido por una araña que ha sido modificada genéticamente, descubriendo al día siguiente que posee unos poderes poco habituales: tiene la fuerza y agilidad de una araña. Las aventuras del hombre araña, basadas en el famoso cómic de Stan Lee y Steve Ditko, arrasó en las taquillas americanas y pulverizó los récords de recaudación en su primer fin de semana: 114 millones de dólares, la primera vez en la historia que se consiguió pasar de la barrera de los 100 millones en un fin de semana normal.

 

Nota: Rip de remasterizacion 4K

Ficha técnica

Video trailer de la película

Enlaces de descarga

Descargar Spider-Man (2002) Full 1080p Latino
Descargar

dpeliculas

Aportes de DPeliculasHDmega la pass es:dpeliculashdmega.org Aportes de CinemaniaHD la pass es:cinemaniahdd.com

Películas relacionadas

  • The Guardian Brothers (2016) WEB-DL 1080p Latino

    2016
    The Guardian Brothers (2016) WEB-DL 1080p Latino

    2.0 1 h 20 min 2016

    Hay una crisis en el mundo espiritual de China: ¡los humanos ya no creen en los dioses! Un Dios de la...

    Director: Gary Wang

    Género: Animación

    Actores: Xiaoxing Yi

  • El vagón de la muerte (2008) UNRATED Full 1080p Latino

    2008
    El vagón de la muerte (2008) UNRATED Full 1080p Latino

    0.0 1 h 42 min 2008

    La dueña de una exitosa galería de arte le propone al fotógrafo Leon Kauffman llevar a cabo un trabajo...

    Director: Ryûhei Kitamura

    Género: Crimen

    Actores: Vinnie Jones

  • Pilgrimage (2017) WEB-DL 1080p Latino

    2017
    Pilgrimage (2017) WEB-DL 1080p Latino

    0.0 1 h 36 min 2017

    “Roma ha hablado”, con esa frase unos monjes cristianos deben comenzar la peregrinación hacia Roma...

    Director: Sophie Higel

    Género: Acción

    Actores: Tristan McConnell

  • The Bourne Ultimátum (2007) Full 1080p Latino

    2007
    The Bourne Ultimátum (2007) Full 1080p Latino

    5.0 1 h 55 min 2007

    Jason Bourne sigue investigando quién es y qué hay realmente detrás del programa secreto de la CIA...

    Director: Sue Mahoney

    Género: Acción

    Actores: William H. Burns

Comentarios 6
  • KIKE - 02 noviembre, 2017

    O Sea q más adelante la subirán en 4k ????

    • Dpelis2 pelis2

      Autor
      - 02 noviembre, 2017

      No creo que se suban en 4K amigo.

      • KIKE - 02 noviembre, 2017

        Bro escuche que toda la colección de harry potter y la trilogía de Nolan lass sacaran en 4k …
        Tendrán en planes esos proyectos ????

        • Dpelis2 pelis2

          Autor
          - 02 noviembre, 2017

          Posiblemente cuando se liberen esos 4K Saludos

  • seba - 02 noviembre, 2017

    buen aporte pero quedo muy pesada 🙁

    • Dpelis2 pelis2

      Autor
      - 02 noviembre, 2017

      Hola Amigo son una Versión de la Remasterización 4K
      Saludos