Advertise here

Spider-Man 2 (2004) EXTENDED Full 1080p Latino

640 vistas
1 estrella2 estrellas3 estrellas4 estrellas5 estrellas (3 votos, promedio: 5,00 de 5)
Cargando…

Información de Spider-Man 2 (2004) EXTENDED Full 1080p Latino

Datos de la película

  • Calidad: Full 1080p
  • Audio: Español Latino AC3 5.1 BLURAY - Ingles AC3 5.1 BLURAY
  • Subtitulos: Español Latino PGS
  • Resolución: 1920X1080
  • Formato: MKV
  • Codec: H.264
  • Encoder: Dpelis
  • Mediainfo: Clic para Mostrar Datos Ver
  • Format                                   : Matroska
    Format version                           : Version 4 / Version 2
    File size                                : 5.76 GiB
    Duration                                 : 2 h 15 min
    Overall bit rate                         : 6 072 kb/s
    Movie name                               : dpeliculashdmega.org
    Encoded date                             : UTC 2017-11-02 04:12:46 / UTC 2017-10-28T12:36:30Z
    Writing application                      : mkvmerge v15.0.0 ('Duel with the Devil') 64-bit
    Writing library                          : libebml v1.3.5 + libmatroska v1.4.5 / Lavf57.7.2

    Video
    ID                                       : 1
    Format                                   : AVC
    Format/Info                              : Advanced Video Codec
    Format profile                           : [email protected]
    Format settings                          : CABAC / 4 Ref Frames
    Format settings, CABAC                   : Yes
    Format settings, RefFrames               : 4 frames
    Codec ID                                 : V_MPEG4/ISO/AVC
    Duration                                 : 2 h 15 min
    Bit rate                                 : 4 863 kb/s
    Width                                    : 1 920 pixels
    Height                                   : 1 080 pixels
    Display aspect ratio                     : 16:9
    Frame rate mode                          : Constant
    Frame rate                               : 23.976 (24000/1001) FPS
    Color space                              : YUV
    Chroma subsampling                       : 4:2:0
    Bit depth                                : 8 bits
    Scan type                                : Progressive
    Bits/(Pixel*Frame)                       : 0.098
    Stream size                              : 4.61 GiB (80%)
    Title                                    : Spider-Man 2 (2004) EXTENDED Full 1080p Latino
    Writing library                          : x264 core 148 r2708 86b7198
    Encoding settings                        : cabac=1 / ref=4 / deblock=1:0:0 / analyse=0x3:0x133 / me=esa / subme=10 / psy=1 / psy_rd=1.00:0.00 / mixed_ref=1 / me_range=24 / chroma_me=1 / trellis=2 / 8x8dct=1 / cqm=0 / deadzone=21,11 / fast_pskip=1 / chroma_qp_offset=-2 / threads=12 / lookahead_threads=2 / sliced_threads=0 / nr=0 / decimate=1 / interlaced=0 / bluray_compat=0 / constrained_intra=0 / bframes=8 / b_pyramid=2 / b_adapt=2 / b_bias=0 / direct=3 / weightb=1 / open_gop=0 / weightp=2 / keyint=240 / keyint_min=24 / scenecut=40 / intra_refresh=0 / rc_lookahead=60 / rc=crf / mbtree=1 / crf=20.0 / qcomp=0.60 / qpmin=0 / qpmax=69 / qpstep=4 / vbv_maxrate=62500 / vbv_bufsize=78125 / crf_max=0.0 / nal_hrd=none / filler=0 / ip_ratio=1.40 / aq=1:1.00
    Language                                 : English
    Default                                  : Yes
    Forced                                   : No
    Color range                              : Limited
    Color primaries                          : BT.709
    Transfer characteristics                 : BT.709
    Matrix coefficients                      : BT.709
    Statistics Tags Issue                    : mkvmerge v15.0.0 ('Duel with the Devil') 64-bit 2017-11-02 04:12:46 / mkvmerge v15.0.0 ('Duel with the Devil') 64-bit 2017-11-02 04:12:46 / UTC 2017-10-28T12:36:30Z
    FromStats_BitRate                        : 4963349
    FromStats_Duration                       : 02:15:47.807000000
    FromStats_FrameCount                     : 195352
    FromStats_StreamSize                     : 5055051352

    Audio #1
    ID                                       : 2
    Format                                   : AC-3
    Format/Info                              : Audio Coding 3
    Format settings, Endianness              : Big
    Codec ID                                 : A_AC3
    Duration                                 : 2 h 15 min
    Bit rate mode                            : Constant
    Bit rate                                 : 448 kb/s
    Channel(s)                               : 6 channels
    Channel positions                        : Front: L C R, Side: L R, LFE
    Sampling rate                            : 48.0 kHz
    Frame rate                               : 31.250 FPS (1536 SPF)
    Bit depth                                : 16 bits
    Compression mode                         : Lossy
    Delay relative to video                  : 400 ms
    Stream size                              : 435 MiB (7%)
    Title                                    : Latino-AC3
    Language                                 : Spanish
    Service kind                             : Complete Main
    Default                                  : Yes
    Forced                                   : No
    Statistics Tags Issue                    : mkvmerge v15.0.0 ('Duel with the Devil') 64-bit 2017-11-02 04:12:46 / mkvmerge v15.0.0 ('Duel with the Devil') 64-bit 2017-11-02 04:12:46 / UTC 2017-10-28T12:36:30Z
    FromStats_BitRate                        : 448000
    FromStats_Duration                       : 02:15:47.648000000
    FromStats_FrameCount                     : 254614
    FromStats_StreamSize                     : 456268288

    Audio #2
    ID                                       : 3
    Format                                   : AC-3
    Format/Info                              : Audio Coding 3
    Format settings, Endianness              : Big
    Codec ID                                 : A_AC3
    Duration                                 : 2 h 15 min
    Bit rate mode                            : Constant
    Bit rate                                 : 640 kb/s
    Channel(s)                               : 6 channels
    Channel positions                        : Front: L C R, Side: L R, LFE
    Sampling rate                            : 48.0 kHz
    Frame rate                               : 31.250 FPS (1536 SPF)
    Bit depth                                : 16 bits
    Compression mode                         : Lossy
    Stream size                              : 622 MiB (11%)
    Title                                    : Ingles-AC3
    Language                                 : English
    Service kind                             : Complete Main
    Default                                  : No
    Forced                                   : No
    Statistics Tags Issue                    : mkvmerge v15.0.0 ('Duel with the Devil') 64-bit 2017-11-02 04:12:46 / mkvmerge v15.0.0 ('Duel with the Devil') 64-bit 2017-11-02 04:12:46 / UTC 2017-10-28T12:36:30Z
    FromStats_BitRate                        : 640000
    FromStats_Duration                       : 02:15:47.872000000
    FromStats_FrameCount                     : 254621
    FromStats_StreamSize                     : 651829760

    Text #1
    ID                                       : 4
    Format                                   : PGS
    Muxing mode                              : zlib
    Codec ID                                 : S_HDMV/PGS
    Codec ID/Info                            : Picture based subtitle format used on BDs/HD-DVDs
    Title                                    : PGS
    Language                                 : Spanish
    Default                                  : No
    Forced                                   : No
    Statistics Tags Issue                    : mkvmerge v15.0.0 ('Duel with the Devil') 64-bit 2017-11-02 04:12:46 / mkvmerge v15.0.0 ('Duel with the Devil') 64-bit 2017-11-02 04:12:46 / UTC 2017-10-28T12:36:30Z
    FromStats_BitRate                        : 21317
    FromStats_Duration                       : 02:14:49.985000000
    FromStats_FrameCount                     : 2412
    FromStats_StreamSize                     : 21557571

    Text #2
    ID                                       : 5
    Format                                   : PGS
    Muxing mode                              : zlib
    Codec ID                                 : S_HDMV/PGS
    Codec ID/Info                            : Picture based subtitle format used on BDs/HD-DVDs
    Title                                    : PGS
    Language                                 : English
    Default                                  : No
    Forced                                   : No
    Statistics Tags Issue                    : mkvmerge v15.0.0 ('Duel with the Devil') 64-bit 2017-11-02 04:12:46 / mkvmerge v15.0.0 ('Duel with the Devil') 64-bit 2017-11-02 04:12:46 / UTC 2017-10-28T12:36:30Z
    FromStats_BitRate                        : 22977
    FromStats_Duration                       : 02:07:04.056000000
    FromStats_FrameCount                     : 2398
    FromStats_StreamSize                     : 21897385

    Menu
    00:00:00.000                             : :Chapter 1
    00:03:27.457                             : :Chapter 2
    00:08:13.576                             : :Chapter 3
    00:09:41.498                             : :Chapter 4
    00:10:54.988                             : :Chapter 5
    00:16:10.845                             : :Chapter 6
    00:19:24.664                             : :Chapter 7
    00:21:19.737                             : :Chapter 8
    00:25:05.629                             : :Chapter 9
    00:25:43.667                             : :Chapter 10
    00:27:16.844                             : :Chapter 11
    00:29:17.798                             : :Chapter 12
    00:31:39.648                             : :Chapter 13
    00:32:47.090                             : :Chapter 14
    00:35:20.869                             : :Chapter 15
    00:37:27.036                             : :Chapter 16
    00:44:07.687                             : :Chapter 17
    00:46:11.018                             : :Chapter 18
    00:47:29.430                             : :Chapter 19
    00:49:01.021                             : :Chapter 20
    00:51:17.324                             : :Chapter 21
    00:54:21.592                             : :Chapter 22
    00:57:42.042                             : :Chapter 23
    01:02:44.219                             : :Chapter 24
    01:04:15.769                             : :Chapter 25
    01:06:08.173                             : :Chapter 26
    01:08:26.144                             : :Chapter 27
    01:10:49.454                             : :Chapter 28
    01:12:33.391                             : :Chapter 29
    01:15:23.227                             : :Chapter 30
    01:17:11.085                             : :Chapter 31
    01:21:21.543                             : :Chapter 32
    01:24:15.467                             : :Chapter 33
    01:26:49.287                             : :Chapter 34
    01:28:59.084                             : :Chapter 35
    01:32:48.897                             : :Chapter 36
    01:34:22.490                             : :Chapter 37
    01:35:44.405                             : :Chapter 38
    01:38:13.262                             : :Chapter 39
    01:40:40.034                             : :Chapter 40
    01:41:46.225                             : :Chapter 41
    01:42:43.991                             : :Chapter 42
    01:45:32.660                             : :Chapter 43
    01:48:16.198                             : :Chapter 44
    01:50:58.360                             : :Chapter 45
    01:53:12.577                             : :Chapter 46
    01:56:23.351                             : :Chapter 47
    02:01:27.322                             : :Chapter 48
    02:03:50.173                             : :Chapter 49
    02:06:17.028                             : :Chapter 50
    02:10:14.181                             : :Chapter 51
    02:11:03.397                             : :Chapter 52

  • Peso: 5.76 GiB

Sinopsis

Han pasado dos años desde que el tranquilo Peter Parker dejó a Mary Jane Watson, su gran amor, y decidió seguir asumir sus responsabilidades como Spider-Man. Peter debe afrontar nuevos desafíos mientras lucha contra el don y la maldición de sus poderes equilibrando sus dos identidades: el escurridizo superhéroe Spider-Man y el estudiante universitario. Las relaciones con las personas que más aprecia están ahora en peligro de ser descubiertas con la aparición del poderoso villano de múltiples tentáculos Doctor Octopus, “Doc Ock”. Su atracción por M.J. se hace más fuerte mientras lucha contra el impulso de abandonar su vida secreta y declarar su amor. Mientras tanto, M.J. ha seguido con su vida. Se ha embarcado en su carrera de actriz y tiene un nuevo hombre en su vida. La relación de Peter con su mejor amigo Harry Osborn se ha alejado por la creciente venganza de Harry contra Spider-Man, al que considera responsable de la muerte de su padre.

 

 

Nota: Rip de remasterizacion 4K 

Ficha técnica

Video trailer de la película

Enlaces de descarga

Descargar Spider-Man 2 (2004) EXTENDED Full 1080p Latino
Descargar

dpeliculas

Aportes de DPeliculasHDmega la pass es:dpeliculashdmega.org Aportes de CinemaniaHD la pass es:cinemaniahdd.com

Películas relacionadas

  • La autopsia de Jane Doe (2016) Full 1080p Latino

    2016
    La autopsia de Jane Doe (2016) Full 1080p Latino

    0.0 1h 39m 2016

    En una pequeño pueblo de Virginia aparece el cuerpo desnudo y semienterrado de una hermosa joven, misteriosa...

    Director: Sheila McNaught

    Género: FULL 1080p Pesadas

    Actores: Parker Sawyers

  • Guardianes de altamar (2006) Full 1080p Latino

    2006
    Guardianes de altamar (2006) Full 1080p Latino

    0.0 2h 16m 2006

    Después de perder a su equipo en un trágico accidente, Ben Randall, un legendario nadador de rescate,...

    Director: Andrew Davis

    Género: Acción

    Actores: Travis Willingham

  • Locos por las nueces 2 (2017) 1080p Latino

    2017
    Locos por las nueces 2 (2017) 1080p Latino

    0.0 1h 35m 2017

    Continuación de Operación cacahuete en la que conoceremos las nuevas aventuras de la malhumorada ardilla...

    Director: Callan Brunker

    Género: Animación

    Actores: Will Arnett

  • The Guardian Brothers (2016) WEB-DL 1080p Latino

    2016
    The Guardian Brothers (2016) WEB-DL 1080p Latino

    2.0 1 h 20 min 2016

    Hay una crisis en el mundo espiritual de China: ¡los humanos ya no creen en los dioses! Un Dios de la...

    Director: Gary Wang

    Género: Animación

    Actores: Xiaoxing Yi

Comentarios 0